Mob Psycho 100 - S01/[zza] Mob Psycho 100 - S01 - 10 [1080p.x265].mkv


File Size357.9 MB (375,291,337 bytes)
DownloadAnonFiles | ClickNUpload | DropAPK | Free | MultiUp
  • BdUpload
  • DownAce
  • Fichier
  • FileCloud
  • Filerio
  • FilesCdn
  • IndiShare
  • Kbagi
  • Turbobit
  • UpToBox
  • Uppit
| SolidFiles | ZippyShare
Sendspace: Part1, Part2
HashesCRC32: D9B90102, MD5: 573CCDFD55431F85BFCB8287C7E41978, SHA1: 9B90C9C90291381809664245660ECEC0133B2D52, SHA256: 542663A97599249837FB5AE24F0141234EFBBB3459AB4996D8689E95EFE3C418, ED2K: 38500EDFE8332B79027D11B55F4FC7A2
Screenshots
screenshotscreenshotscreenshotscreenshotscreenshot
SubtitlesAll Attachments | English [eng, ASS], Arabic [ara, ASS], French [fre, ASS], German [ger, ASS], Italian [ita, ASS], Portuguese [por, ASS], Russian [rus, ASS]
Additional Info
General
Unique ID                                : 78469718803861604870072499650437627990 (0x3B08B7D6876213901B4778E41B04C056)
Complete name                            : [zza] Mob Psycho 100 - S01 - 10 [1080p.x265].mkv
Format                                   : Matroska
Format version                           : Version 4
File size                                : 358 MiB
Duration                                 : 24 min 11 s
Overall bit rate                         : 2 069 kb/s
Movie name                               : [zza] Mob Psycho 100 - S01 - 10 - The Heinous Aura ~Mastermind~
Encoded date                             : UTC 2020-07-31 21:45:21
Writing application                      : mkvmerge v46.0.0 ('No Deeper Escape') 64-bit
Writing library                          : libebml v1.3.10 + libmatroska v1.5.2
Cover                                    : Yes
Attachments                              : cover.jpg

Video
ID                                       : 1
Format                                   : HEVC
Format/Info                              : High Efficiency Video Coding
Format profile                           : Main 10@L5@Main
Codec ID                                 : V_MPEGH/ISO/HEVC
Duration                                 : 24 min 11 s
Bit rate                                 : 1 869 kb/s
Width                                    : 1 920 pixels
Height                                   : 1 080 pixels
Display aspect ratio                     : 16:9
Frame rate mode                          : Variable
Frame rate                               : 23.976 FPS
Color space                              : YUV
Chroma subsampling                       : 4:2:0
Bit depth                                : 10 bits
Bits/(Pixel*Frame)                       : 0.038
Stream size                              : 323 MiB (90%)
Language                                 : zza
Default                                  : Yes
Forced                                   : No
Color range                              : Limited

Audio
ID                                       : 2
Format                                   : AAC LC
Format/Info                              : Advanced Audio Codec Low Complexity
Codec ID                                 : A_AAC-2
Duration                                 : 24 min 11 s
Bit rate                                 : 192 kb/s
Channel(s)                               : 2 channels
Channel layout                           : L R
Sampling rate                            : 48.0 kHz
Frame rate                               : 46.875 FPS (1024 SPF)
Compression mode                         : Lossy
Stream size                              : 33.3 MiB (9%)
Language                                 : Japanese
Default                                  : Yes
Forced                                   : No

Text #1
ID                                       : 3
Format                                   : ASS
Codec ID                                 : S_TEXT/ASS
Codec ID/Info                            : Advanced Sub Station Alpha
Duration                                 : 24 min 8 s
Bit rate                                 : 138 b/s
Count of elements                        : 393
Compression mode                         : Lossless
Stream size                              : 24.4 KiB (0%)
Title                                    : English
Language                                 : English
Default                                  : Yes
Forced                                   : No

Text #2
ID                                       : 4
Format                                   : ASS
Codec ID                                 : S_TEXT/ASS
Codec ID/Info                            : Advanced Sub Station Alpha
Duration                                 : 24 min 8 s
Bit rate                                 : 168 b/s
Count of elements                        : 387
Compression mode                         : Lossless
Stream size                              : 29.8 KiB (0%)
Title                                    : Arabic
Language                                 : Arabic
Default                                  : No
Forced                                   : No

Text #3
ID                                       : 5
Format                                   : ASS
Codec ID                                 : S_TEXT/ASS
Codec ID/Info                            : Advanced Sub Station Alpha
Duration                                 : 24 min 8 s
Bit rate                                 : 140 b/s
Count of elements                        : 349
Compression mode                         : Lossless
Stream size                              : 24.8 KiB (0%)
Title                                    : French
Language                                 : French
Default                                  : No
Forced                                   : No

Text #4
ID                                       : 6
Format                                   : ASS
Codec ID                                 : S_TEXT/ASS
Codec ID/Info                            : Advanced Sub Station Alpha
Duration                                 : 24 min 8 s
Bit rate                                 : 149 b/s
Count of elements                        : 444
Compression mode                         : Lossless
Stream size                              : 26.5 KiB (0%)
Title                                    : German
Language                                 : German
Default                                  : No
Forced                                   : No

Text #5
ID                                       : 7
Format                                   : ASS
Codec ID                                 : S_TEXT/ASS
Codec ID/Info                            : Advanced Sub Station Alpha
Duration                                 : 24 min 8 s
Bit rate                                 : 151 b/s
Count of elements                        : 389
Compression mode                         : Lossless
Stream size                              : 26.7 KiB (0%)
Title                                    : Italian
Language                                 : Italian
Default                                  : No
Forced                                   : No

Text #6
ID                                       : 8
Format                                   : ASS
Codec ID                                 : S_TEXT/ASS
Codec ID/Info                            : Advanced Sub Station Alpha
Duration                                 : 24 min 8 s
Bit rate                                 : 142 b/s
Count of elements                        : 387
Compression mode                         : Lossless
Stream size                              : 25.1 KiB (0%)
Title                                    : Portuguese
Language                                 : Portuguese
Default                                  : No
Forced                                   : No

Text #7
ID                                       : 9
Format                                   : ASS
Codec ID                                 : S_TEXT/ASS
Codec ID/Info                            : Advanced Sub Station Alpha
Duration                                 : 24 min 8 s
Bit rate                                 : 174 b/s
Count of elements                        : 390
Compression mode                         : Lossless
Stream size                              : 30.8 KiB (0%)
Title                                    : Russian
Language                                 : Russian
Default                                  : No
Forced                                   : No

Menu
00:00:00.000                             : en:Chapitre 07
00:00:32.032                             : en:Chapitre 08
00:02:01.996                             : en:Chapitre 09
00:10:19.035                             : en:Chapitre 10
00:21:42.050                             : en:Chapitre 11
00:23:12.015                             : en:Chapitre 12
00:23:55.016                             : en:Chapitre 13

Other Files in this Torrent
Mob Psycho 100 - S01/[zza] Mob Psycho 100 - S01 - 10 [1080p.x265].mkv
beta
Anime DDL+NZB mirror
Current Time: 22/04/2024 06:46



About/FAQs

Discord