Mob Psycho 100 - S02/[zza] Mob Psycho 100 - S02 - 11 [1080p.x265].mkv


File Size386.5 MB (405,226,861 bytes)
DownloadAnonFiles | ClickNUpload | DropAPK | Free | MultiUp
  • BdUpload
  • DownAce
  • Fichier
  • FileCloud
  • Filerio
  • FilesCdn
  • IndiShare
  • Kbagi
  • Turbobit
  • UpToBox
  • Uppit
| SolidFiles | ZippyShare
Sendspace: Part1, Part2
HashesCRC32: 8C022384, MD5: 3FF23A837C6818F925894A7B23CC3CA5, SHA1: 7D102C2AFE80118DC78590A1DCF1BBD0E1AEF3EB, SHA256: DBBDD6437905F7F1021397D1F68A34A98C00C51F0765AFBA180A3B44EE5B62E7, ED2K: 7B7044760ADA2B67BC05AE1D8DD717C4
Screenshots
screenshotscreenshotscreenshotscreenshotscreenshot
SubtitlesAll Attachments | English [eng, ASS], Arabic [ara, ASS], French [fre, ASS], German [ger, ASS], Italian [ita, ASS], Portuguese [por, ASS], Russian [rus, ASS], Spanish1 [spa, ASS], Spanish2 [spa, ASS]
Additional Info
General
Unique ID                                : 11042845566856344800760906790638248480 (0x84EC65266C0B7A8963290C49AACE220)
Complete name                            : [zza] Mob Psycho 100 - S02 - 11 [1080p.x265].mkv
Format                                   : Matroska
Format version                           : Version 4
File size                                : 386 MiB
Duration                                 : 24 min 11 s
Overall bit rate                         : 2 233 kb/s
Movie name                               : [zza] Mob Psycho 100 - S02 - 11 - Guidance ~Psychic Sensor~
Encoded date                             : UTC 2020-07-31 22:44:49
Writing application                      : mkvmerge v46.0.0 ('No Deeper Escape') 64-bit
Writing library                          : libebml v1.3.10 + libmatroska v1.5.2
Cover                                    : Yes
Attachments                              : cover.jpg

Video
ID                                       : 1
Format                                   : HEVC
Format/Info                              : High Efficiency Video Coding
Format profile                           : Main 10@L5@Main
Codec ID                                 : V_MPEGH/ISO/HEVC
Duration                                 : 24 min 11 s
Bit rate                                 : 2 036 kb/s
Width                                    : 1 920 pixels
Height                                   : 1 080 pixels
Display aspect ratio                     : 16:9
Frame rate mode                          : Variable
Frame rate                               : 23.976 FPS
Color space                              : YUV
Chroma subsampling                       : 4:2:0
Bit depth                                : 10 bits
Bits/(Pixel*Frame)                       : 0.041
Stream size                              : 352 MiB (91%)
Language                                 : zza
Default                                  : Yes
Forced                                   : No
Color range                              : Limited

Audio
ID                                       : 2
Format                                   : AAC LC
Format/Info                              : Advanced Audio Codec Low Complexity
Codec ID                                 : A_AAC-2
Duration                                 : 24 min 11 s
Bit rate                                 : 192 kb/s
Channel(s)                               : 2 channels
Channel layout                           : L R
Sampling rate                            : 48.0 kHz
Frame rate                               : 46.875 FPS (1024 SPF)
Compression mode                         : Lossy
Stream size                              : 33.2 MiB (9%)
Language                                 : Japanese
Default                                  : Yes
Forced                                   : No

Text #1
ID                                       : 3
Format                                   : ASS
Codec ID                                 : S_TEXT/ASS
Codec ID/Info                            : Advanced Sub Station Alpha
Duration                                 : 24 min 9 s
Bit rate                                 : 154 b/s
Count of elements                        : 404
Compression mode                         : Lossless
Stream size                              : 27.4 KiB (0%)
Title                                    : English
Language                                 : English
Default                                  : Yes
Forced                                   : No

Text #2
ID                                       : 4
Format                                   : ASS
Codec ID                                 : S_TEXT/ASS
Codec ID/Info                            : Advanced Sub Station Alpha
Duration                                 : 24 min 9 s
Bit rate                                 : 190 b/s
Count of elements                        : 403
Compression mode                         : Lossless
Stream size                              : 33.6 KiB (0%)
Title                                    : Arabic
Language                                 : Arabic
Default                                  : No
Forced                                   : No

Text #3
ID                                       : 5
Format                                   : ASS
Codec ID                                 : S_TEXT/ASS
Codec ID/Info                            : Advanced Sub Station Alpha
Duration                                 : 24 min 8 s
Bit rate                                 : 146 b/s
Count of elements                        : 348
Compression mode                         : Lossless
Stream size                              : 25.8 KiB (0%)
Title                                    : French
Language                                 : French
Default                                  : No
Forced                                   : No

Text #4
ID                                       : 6
Format                                   : ASS
Codec ID                                 : S_TEXT/ASS
Codec ID/Info                            : Advanced Sub Station Alpha
Duration                                 : 24 min 8 s
Bit rate                                 : 229 b/s
Count of elements                        : 457
Compression mode                         : Lossless
Stream size                              : 40.6 KiB (0%)
Title                                    : German
Language                                 : German
Default                                  : No
Forced                                   : No

Text #5
ID                                       : 7
Format                                   : ASS
Codec ID                                 : S_TEXT/ASS
Codec ID/Info                            : Advanced Sub Station Alpha
Duration                                 : 24 min 9 s
Bit rate                                 : 149 b/s
Count of elements                        : 368
Compression mode                         : Lossless
Stream size                              : 26.5 KiB (0%)
Title                                    : Italian
Language                                 : Italian
Default                                  : No
Forced                                   : No

Text #6
ID                                       : 8
Format                                   : ASS
Codec ID                                 : S_TEXT/ASS
Codec ID/Info                            : Advanced Sub Station Alpha
Duration                                 : 24 min 9 s
Bit rate                                 : 163 b/s
Count of elements                        : 404
Compression mode                         : Lossless
Stream size                              : 28.8 KiB (0%)
Title                                    : Portuguese
Language                                 : Portuguese
Default                                  : No
Forced                                   : No

Text #7
ID                                       : 9
Format                                   : ASS
Codec ID                                 : S_TEXT/ASS
Codec ID/Info                            : Advanced Sub Station Alpha
Duration                                 : 24 min 8 s
Bit rate                                 : 200 b/s
Count of elements                        : 415
Compression mode                         : Lossless
Stream size                              : 35.4 KiB (0%)
Title                                    : Russian
Language                                 : Russian
Default                                  : No
Forced                                   : No

Text #8
ID                                       : 10
Format                                   : ASS
Codec ID                                 : S_TEXT/ASS
Codec ID/Info                            : Advanced Sub Station Alpha
Duration                                 : 24 min 10 s
Bit rate                                 : 119 b/s
Count of elements                        : 342
Compression mode                         : Lossless
Stream size                              : 21.2 KiB (0%)
Title                                    : Spanish1
Language                                 : Spanish
Default                                  : No
Forced                                   : No

Text #9
ID                                       : 11
Format                                   : ASS
Codec ID                                 : S_TEXT/ASS
Codec ID/Info                            : Advanced Sub Station Alpha
Duration                                 : 24 min 10 s
Bit rate                                 : 119 b/s
Count of elements                        : 343
Compression mode                         : Lossless
Stream size                              : 21.2 KiB (0%)
Title                                    : Spanish2
Language                                 : Spanish
Default                                  : No
Forced                                   : No

Menu
00:00:00.000                             : en:Chapitre 07
00:01:02.979                             : en:Chapitre 08
00:02:33.027                             : en:Chapitre 09
00:11:22.264                             : en:Chapitre 10
00:21:53.228                             : en:Chapitre 11
00:23:23.235                             : en:Chapitre 12
00:23:55.183                             : en:Chapitre 13

Other Files in this Torrent
Mob Psycho 100 - S02/[zza] Mob Psycho 100 - S02 - 11 [1080p.x265].mkv
beta
Anime DDL+NZB mirror
Current Time: 23/04/2024 07:59



About/FAQs

Discord