Mob Psycho 100 - S01/[zza] Mob Psycho 100 - S01 - 07 [1080p.x265].mkv


File Size334.6 MB (350,813,080 bytes)
DownloadAnonFiles | ClickNUpload | DropAPK | Free | MultiUp
  • BdUpload
  • DownAce
  • Fichier
  • FileCloud
  • Filerio
  • FilesCdn
  • IndiShare
  • Kbagi
  • Turbobit
  • UpToBox
  • Uppit
| SolidFiles | ZippyShare
Sendspace: Part1, Part2
HashesCRC32: C588189E, MD5: E217ECA87F675024D713E80ADA067E54, SHA1: 72F2DF0207BD3F6DC8CFE2089D670AD7444B54C9, SHA256: 97651D403ADAE7DA664E6F0FE798EF813B4D214AB68AC1F3D6F53EDD9BAE097B, ED2K: CD091BF717EE7334EA0CAD78DE4AE282
Screenshots
screenshotscreenshotscreenshotscreenshotscreenshot
SubtitlesAll Attachments | English [eng, ASS], Arabic [ara, ASS], French [fre, ASS], German [ger, ASS], Italian [ita, ASS], Portuguese [por, ASS], Russian [rus, ASS]
Additional Info
General
Unique ID                                : 27622385077300095739666502781840347268 (0x14C7E0BB24A0B4327B7448DA38735084)
Complete name                            : [zza] Mob Psycho 100 - S01 - 07 [1080p.x265].mkv
Format                                   : Matroska
Format version                           : Version 4
File size                                : 335 MiB
Duration                                 : 24 min 13 s
Overall bit rate                         : 1 931 kb/s
Movie name                               : [zza] Mob Psycho 100 - S01 - 07 - Exaltation ~I've Obtained Loss~
Encoded date                             : UTC 2020-07-31 21:42:47
Writing application                      : mkvmerge v46.0.0 ('No Deeper Escape') 64-bit
Writing library                          : libebml v1.3.10 + libmatroska v1.5.2
Cover                                    : Yes
Attachments                              : cover.jpg

Video
ID                                       : 1
Format                                   : HEVC
Format/Info                              : High Efficiency Video Coding
Format profile                           : Main 10@L5@Main
Codec ID                                 : V_MPEGH/ISO/HEVC
Duration                                 : 24 min 12 s
Bit rate                                 : 1 732 kb/s
Width                                    : 1 920 pixels
Height                                   : 1 080 pixels
Display aspect ratio                     : 16:9
Frame rate mode                          : Variable
Frame rate                               : 23.976 FPS
Color space                              : YUV
Chroma subsampling                       : 4:2:0
Bit depth                                : 10 bits
Bits/(Pixel*Frame)                       : 0.035
Stream size                              : 300 MiB (90%)
Language                                 : zza
Default                                  : Yes
Forced                                   : No
Color range                              : Limited

Audio
ID                                       : 2
Format                                   : AAC LC
Format/Info                              : Advanced Audio Codec Low Complexity
Codec ID                                 : A_AAC-2
Duration                                 : 24 min 12 s
Bit rate                                 : 192 kb/s
Channel(s)                               : 2 channels
Channel layout                           : L R
Sampling rate                            : 48.0 kHz
Frame rate                               : 46.875 FPS (1024 SPF)
Compression mode                         : Lossy
Stream size                              : 33.3 MiB (10%)
Language                                 : Japanese
Default                                  : Yes
Forced                                   : No

Text #1
ID                                       : 3
Format                                   : ASS
Codec ID                                 : S_TEXT/ASS
Codec ID/Info                            : Advanced Sub Station Alpha
Duration                                 : 24 min 8 s
Bit rate                                 : 173 b/s
Count of elements                        : 460
Compression mode                         : Lossless
Stream size                              : 30.7 KiB (0%)
Title                                    : English
Language                                 : English
Default                                  : Yes
Forced                                   : No

Text #2
ID                                       : 4
Format                                   : ASS
Codec ID                                 : S_TEXT/ASS
Codec ID/Info                            : Advanced Sub Station Alpha
Duration                                 : 24 min 12 s
Bit rate                                 : 213 b/s
Count of elements                        : 458
Compression mode                         : Lossless
Stream size                              : 37.9 KiB (0%)
Title                                    : Arabic
Language                                 : Arabic
Default                                  : No
Forced                                   : No

Text #3
ID                                       : 5
Format                                   : ASS
Codec ID                                 : S_TEXT/ASS
Codec ID/Info                            : Advanced Sub Station Alpha
Duration                                 : 24 min 7 s
Bit rate                                 : 169 b/s
Count of elements                        : 422
Compression mode                         : Lossless
Stream size                              : 29.9 KiB (0%)
Title                                    : French
Language                                 : French
Default                                  : No
Forced                                   : No

Text #4
ID                                       : 6
Format                                   : ASS
Codec ID                                 : S_TEXT/ASS
Codec ID/Info                            : Advanced Sub Station Alpha
Duration                                 : 24 min 7 s
Bit rate                                 : 181 b/s
Count of elements                        : 510
Compression mode                         : Lossless
Stream size                              : 32.1 KiB (0%)
Title                                    : German
Language                                 : German
Default                                  : No
Forced                                   : No

Text #5
ID                                       : 7
Format                                   : ASS
Codec ID                                 : S_TEXT/ASS
Codec ID/Info                            : Advanced Sub Station Alpha
Duration                                 : 24 min 8 s
Bit rate                                 : 186 b/s
Count of elements                        : 460
Compression mode                         : Lossless
Stream size                              : 33.0 KiB (0%)
Title                                    : Italian
Language                                 : Italian
Default                                  : No
Forced                                   : No

Text #6
ID                                       : 8
Format                                   : ASS
Codec ID                                 : S_TEXT/ASS
Codec ID/Info                            : Advanced Sub Station Alpha
Duration                                 : 24 min 8 s
Bit rate                                 : 176 b/s
Count of elements                        : 455
Compression mode                         : Lossless
Stream size                              : 31.1 KiB (0%)
Title                                    : Portuguese
Language                                 : Portuguese
Default                                  : No
Forced                                   : No

Text #7
ID                                       : 9
Format                                   : ASS
Codec ID                                 : S_TEXT/ASS
Codec ID/Info                            : Advanced Sub Station Alpha
Duration                                 : 24 min 7 s
Bit rate                                 : 198 b/s
Count of elements                        : 432
Compression mode                         : Lossless
Stream size                              : 35.1 KiB (0%)
Title                                    : Russian
Language                                 : Russian
Default                                  : No
Forced                                   : No

Menu
00:00:00.000                             : en:Chapitre 01
00:00:57.057                             : en:Chapitre 02
00:02:27.021                             : en:Chapitre 03
00:11:41.033                             : en:Chapitre 04
00:22:25.010                             : en:Chapitre 05
00:23:54.975                             : en:Chapitre 06

Other Files in this Torrent
Mob Psycho 100 - S01/[zza] Mob Psycho 100 - S01 - 07 [1080p.x265].mkv
beta
Anime DDL+NZB mirror
Current Time: 21/02/2024 21:43



About/FAQs

Discord