Mob Psycho 100 - S02/[zza] Mob Psycho 100 - S02 - 04 [1080p.x265].mkv


File Size332.7 MB (348,835,903 bytes)
DownloadAnonFiles | ClickNUpload | DropAPK | Free | MultiUp
  • BdUpload
  • DownAce
  • Fichier
  • FileCloud
  • Filerio
  • FilesCdn
  • IndiShare
  • Kbagi
  • Turbobit
  • UpToBox
  • Uppit
| SolidFiles | ZippyShare
Sendspace: Part1, Part2
HashesCRC32: 2B5E983B, MD5: 499447E47FD8B1527FF65B52D06E09A1, SHA1: E81B7AFAB6C148AA4A33986E9C4EA0D2064BFCA2, SHA256: 8A76007EAD505CCD9A0DD19DF79043038A8EFB09857B87D52BED59A37AF1CC31, ED2K: 041DA049C4C83750985A72EC233B1CA9
Screenshots
screenshotscreenshotscreenshotscreenshotscreenshot
SubtitlesAll Attachments | English [eng, ASS], Arabic [ara, ASS], French [fre, ASS], German [ger, ASS], Italian [ita, ASS], Portuguese [por, ASS], Russian [rus, ASS], Spanish1 [spa, ASS], Spanish2 [spa, ASS]
Additional Info
General
Unique ID                                : 114488539853726518887097359698431609409 (0x5621B0D2FBAB392EABB04C3711B08A41)
Complete name                            : [zza] Mob Psycho 100 - S02 - 04 [1080p.x265].mkv
Format                                   : Matroska
Format version                           : Version 4
File size                                : 333 MiB
Duration                                 : 24 min 12 s
Overall bit rate                         : 1 922 kb/s
Movie name                               : [zza] Mob Psycho 100 - S02 - 04 - Inside ~Evil Spirit~
Encoded date                             : UTC 2020-07-31 22:43:26
Writing application                      : mkvmerge v46.0.0 ('No Deeper Escape') 64-bit
Writing library                          : libebml v1.3.10 + libmatroska v1.5.2
Cover                                    : Yes
Attachments                              : cover.jpg

Video
ID                                       : 1
Format                                   : HEVC
Format/Info                              : High Efficiency Video Coding
Format profile                           : Main 10@L5@Main
Codec ID                                 : V_MPEGH/ISO/HEVC
Duration                                 : 24 min 12 s
Bit rate                                 : 1 724 kb/s
Width                                    : 1 920 pixels
Height                                   : 1 080 pixels
Display aspect ratio                     : 16:9
Frame rate mode                          : Variable
Frame rate                               : 23.976 FPS
Color space                              : YUV
Chroma subsampling                       : 4:2:0
Bit depth                                : 10 bits
Bits/(Pixel*Frame)                       : 0.035
Stream size                              : 298 MiB (90%)
Language                                 : zza
Default                                  : Yes
Forced                                   : No
Color range                              : Limited

Audio
ID                                       : 2
Format                                   : AAC LC
Format/Info                              : Advanced Audio Codec Low Complexity
Codec ID                                 : A_AAC-2
Duration                                 : 24 min 12 s
Bit rate                                 : 192 kb/s
Channel(s)                               : 2 channels
Channel layout                           : L R
Sampling rate                            : 48.0 kHz
Frame rate                               : 46.875 FPS (1024 SPF)
Compression mode                         : Lossy
Stream size                              : 33.3 MiB (10%)
Language                                 : Japanese
Default                                  : Yes
Forced                                   : No

Text #1
ID                                       : 3
Format                                   : ASS
Codec ID                                 : S_TEXT/ASS
Codec ID/Info                            : Advanced Sub Station Alpha
Duration                                 : 24 min 5 s
Bit rate                                 : 160 b/s
Count of elements                        : 433
Compression mode                         : Lossless
Stream size                              : 28.4 KiB (0%)
Title                                    : English
Language                                 : English
Default                                  : Yes
Forced                                   : No

Text #2
ID                                       : 4
Format                                   : ASS
Codec ID                                 : S_TEXT/ASS
Codec ID/Info                            : Advanced Sub Station Alpha
Duration                                 : 24 min 5 s
Bit rate                                 : 197 b/s
Count of elements                        : 431
Compression mode                         : Lossless
Stream size                              : 34.9 KiB (0%)
Title                                    : Arabic
Language                                 : Arabic
Default                                  : No
Forced                                   : No

Text #3
ID                                       : 5
Format                                   : ASS
Codec ID                                 : S_TEXT/ASS
Codec ID/Info                            : Advanced Sub Station Alpha
Duration                                 : 24 min 4 s
Bit rate                                 : 152 b/s
Count of elements                        : 371
Compression mode                         : Lossless
Stream size                              : 26.9 KiB (0%)
Title                                    : French
Language                                 : French
Default                                  : No
Forced                                   : No

Text #4
ID                                       : 6
Format                                   : ASS
Codec ID                                 : S_TEXT/ASS
Codec ID/Info                            : Advanced Sub Station Alpha
Duration                                 : 24 min 5 s
Bit rate                                 : 160 b/s
Count of elements                        : 412
Compression mode                         : Lossless
Stream size                              : 28.2 KiB (0%)
Title                                    : German
Language                                 : German
Default                                  : No
Forced                                   : No

Text #5
ID                                       : 7
Format                                   : ASS
Codec ID                                 : S_TEXT/ASS
Codec ID/Info                            : Advanced Sub Station Alpha
Duration                                 : 24 min 5 s
Bit rate                                 : 207 b/s
Count of elements                        : 493
Compression mode                         : Lossless
Stream size                              : 36.7 KiB (0%)
Title                                    : Italian
Language                                 : Italian
Default                                  : No
Forced                                   : No

Text #6
ID                                       : 8
Format                                   : ASS
Codec ID                                 : S_TEXT/ASS
Codec ID/Info                            : Advanced Sub Station Alpha
Duration                                 : 24 min 5 s
Bit rate                                 : 161 b/s
Count of elements                        : 432
Compression mode                         : Lossless
Stream size                              : 28.6 KiB (0%)
Title                                    : Portuguese
Language                                 : Portuguese
Default                                  : No
Forced                                   : No

Text #7
ID                                       : 9
Format                                   : ASS
Codec ID                                 : S_TEXT/ASS
Codec ID/Info                            : Advanced Sub Station Alpha
Duration                                 : 24 min 4 s
Bit rate                                 : 206 b/s
Count of elements                        : 448
Compression mode                         : Lossless
Stream size                              : 36.4 KiB (0%)
Title                                    : Russian
Language                                 : Russian
Default                                  : No
Forced                                   : No

Text #8
ID                                       : 10
Format                                   : ASS
Codec ID                                 : S_TEXT/ASS
Codec ID/Info                            : Advanced Sub Station Alpha
Duration                                 : 24 min 7 s
Bit rate                                 : 127 b/s
Count of elements                        : 381
Compression mode                         : Lossless
Stream size                              : 22.5 KiB (0%)
Title                                    : Spanish1
Language                                 : Spanish
Default                                  : No
Forced                                   : No

Text #9
ID                                       : 11
Format                                   : ASS
Codec ID                                 : S_TEXT/ASS
Codec ID/Info                            : Advanced Sub Station Alpha
Duration                                 : 24 min 7 s
Bit rate                                 : 125 b/s
Count of elements                        : 381
Compression mode                         : Lossless
Stream size                              : 22.2 KiB (0%)
Title                                    : Spanish2
Language                                 : Spanish
Default                                  : No
Forced                                   : No

Menu
00:00:00.000                             : en:Chapitre 01
00:00:27.027                             : en:Chapitre 02
00:01:57.033                             : en:Chapitre 03
00:15:04.278                             : en:Chapitre 04
00:22:25.344                             : en:Chapitre 05
00:23:55.267                             : en:Chapitre 06

Other Files in this Torrent
Mob Psycho 100 - S02/[zza] Mob Psycho 100 - S02 - 04 [1080p.x265].mkv
beta
Anime DDL+NZB mirror
Current Time: 23/04/2024 08:36



About/FAQs

Discord