Mob Psycho 100 - S01/[zza] Mob Psycho 100 - S01 - 01 [1080p.x265].mkv


File Size346.2 MB (363,006,011 bytes)
DownloadAnonFiles | ClickNUpload | DropAPK | Free | MultiUp
  • BdUpload
  • DownAce
  • Fichier
  • FileCloud
  • Filerio
  • FilesCdn
  • IndiShare
  • Kbagi
  • Turbobit
  • UpToBox
  • Uppit
| SolidFiles | ZippyShare
Sendspace: Part1, Part2
HashesCRC32: 182B43F5, MD5: A578F7C982E40D01D1F29F96383CF110, SHA1: 3E7FAE25525EA894148BD1ED455B0EC689BD2376, SHA256: CC647F61E70312406B262D79F62F10AAD23C6B99598C6D7518AC3D208278C2DC, ED2K: 0FD423F9BE0A69A44B5E16C804C26FDF
Screenshots
screenshotscreenshotscreenshotscreenshotscreenshot
SubtitlesAll Attachments | English [eng, ASS], Arabic [ara, ASS], French [fre, ASS], German [ger, ASS], Italian [ita, ASS], Portuguese [por, ASS], Russian [rus, ASS]
Additional Info
General
Unique ID                                : 310054550470706874261839915621209359742 (0xE9425595A2ACF28C62FD136BDCB0457E)
Complete name                            : [zza] Mob Psycho 100 - S01 - 01 [1080p.x265].mkv
Format                                   : Matroska
Format version                           : Version 4
File size                                : 346 MiB
Duration                                 : 24 min 11 s
Overall bit rate                         : 2 000 kb/s
Movie name                               : [zza] Mob Psycho 100 - S01 - 01 - Self-Proclaimed Psychic: Arataka Reigen ~And Mob~
Encoded date                             : UTC 2020-07-31 21:38:54
Writing application                      : mkvmerge v46.0.0 ('No Deeper Escape') 64-bit
Writing library                          : libebml v1.3.10 + libmatroska v1.5.2
Cover                                    : Yes
Attachments                              : cover.jpg

Video
ID                                       : 1
Format                                   : HEVC
Format/Info                              : High Efficiency Video Coding
Format profile                           : Main 10@L5@Main
Codec ID                                 : V_MPEGH/ISO/HEVC
Duration                                 : 24 min 11 s
Bit rate                                 : 1 799 kb/s
Width                                    : 1 920 pixels
Height                                   : 1 080 pixels
Display aspect ratio                     : 16:9
Frame rate mode                          : Variable
Frame rate                               : 23.976 FPS
Color space                              : YUV
Chroma subsampling                       : 4:2:0
Bit depth                                : 10 bits
Bits/(Pixel*Frame)                       : 0.036
Stream size                              : 311 MiB (90%)
Language                                 : zza
Default                                  : Yes
Forced                                   : No
Color range                              : Limited

Audio
ID                                       : 2
Format                                   : AAC LC
Format/Info                              : Advanced Audio Codec Low Complexity
Codec ID                                 : A_AAC-2
Duration                                 : 24 min 11 s
Bit rate                                 : 192 kb/s
Channel(s)                               : 2 channels
Channel layout                           : L R
Sampling rate                            : 48.0 kHz
Frame rate                               : 46.875 FPS (1024 SPF)
Compression mode                         : Lossy
Stream size                              : 33.2 MiB (10%)
Language                                 : Japanese
Default                                  : Yes
Forced                                   : No

Text #1
ID                                       : 3
Format                                   : ASS
Codec ID                                 : S_TEXT/ASS
Codec ID/Info                            : Advanced Sub Station Alpha
Duration                                 : 22 min 29 s
Bit rate                                 : 176 b/s
Count of elements                        : 448
Compression mode                         : Lossless
Stream size                              : 29.0 KiB (0%)
Title                                    : English
Language                                 : English
Default                                  : Yes
Forced                                   : No

Text #2
ID                                       : 4
Format                                   : ASS
Codec ID                                 : S_TEXT/ASS
Codec ID/Info                            : Advanced Sub Station Alpha
Duration                                 : 22 min 29 s
Bit rate                                 : 218 b/s
Count of elements                        : 442
Compression mode                         : Lossless
Stream size                              : 36.0 KiB (0%)
Title                                    : Arabic
Language                                 : Arabic
Default                                  : No
Forced                                   : No

Text #3
ID                                       : 5
Format                                   : ASS
Codec ID                                 : S_TEXT/ASS
Codec ID/Info                            : Advanced Sub Station Alpha
Duration                                 : 22 min 29 s
Bit rate                                 : 165 b/s
Count of elements                        : 385
Compression mode                         : Lossless
Stream size                              : 27.3 KiB (0%)
Title                                    : French
Language                                 : French
Default                                  : No
Forced                                   : No

Text #4
ID                                       : 6
Format                                   : ASS
Codec ID                                 : S_TEXT/ASS
Codec ID/Info                            : Advanced Sub Station Alpha
Duration                                 : 22 min 29 s
Bit rate                                 : 186 b/s
Count of elements                        : 421
Compression mode                         : Lossless
Stream size                              : 30.7 KiB (0%)
Title                                    : German
Language                                 : German
Default                                  : No
Forced                                   : No

Text #5
ID                                       : 7
Format                                   : ASS
Codec ID                                 : S_TEXT/ASS
Codec ID/Info                            : Advanced Sub Station Alpha
Duration                                 : 22 min 29 s
Bit rate                                 : 186 b/s
Count of elements                        : 421
Compression mode                         : Lossless
Stream size                              : 30.7 KiB (0%)
Title                                    : Italian
Language                                 : Italian
Default                                  : No
Forced                                   : No

Text #6
ID                                       : 8
Format                                   : ASS
Codec ID                                 : S_TEXT/ASS
Codec ID/Info                            : Advanced Sub Station Alpha
Duration                                 : 22 min 29 s
Bit rate                                 : 176 b/s
Count of elements                        : 412
Compression mode                         : Lossless
Stream size                              : 29.1 KiB (0%)
Title                                    : Portuguese
Language                                 : Portuguese
Default                                  : No
Forced                                   : No

Text #7
ID                                       : 9
Format                                   : ASS
Codec ID                                 : S_TEXT/ASS
Codec ID/Info                            : Advanced Sub Station Alpha
Duration                                 : 22 min 29 s
Bit rate                                 : 209 b/s
Count of elements                        : 434
Compression mode                         : Lossless
Stream size                              : 34.5 KiB (0%)
Title                                    : Russian
Language                                 : Russian
Default                                  : No
Forced                                   : No

Menu
00:00:00.000                             : en:Chapitre 01
00:01:45.730                             : en:Chapitre 02
00:07:55.016                             : en:Chapitre 03
00:09:24.981                             : en:Chapitre 04
00:13:07.953                             : en:Chapitre 05
00:22:25.177                             : en:Chapitre 06
00:23:54.933                             : en:Chapitre 07

Other Files in this Torrent
Mob Psycho 100 - S01/[zza] Mob Psycho 100 - S01 - 01 [1080p.x265].mkv
beta
Anime DDL+NZB mirror
Current Time: 22/04/2024 06:33



About/FAQs

Discord