Mob Psycho 100 - S01/SPED/[zza] Mob Psycho 100 - S01 - SP - 01 [1080p.x265].mkv


File Size16.18 MB (16,971,161 bytes)
DownloadAnonFiles | ClickNUpload | DropAPK | Free | MultiUp
  • BdUpload
  • DownAce
  • Fichier
  • FileCloud
  • Filerio
  • FilesCdn
  • IndiShare
  • Kbagi
  • Turbobit
  • UpToBox
  • Uppit
| Sendspace | SolidFiles | ZippyShare
HashesCRC32: 069A2111, MD5: 580A2A4DC4BA5175DF9AB071C5BE476E, SHA1: 082BEBFC2F5F4805F6F38CB7715AD8AAE11BB289, SHA256: DE5018EB48C93FC845C09F989A1CAE75EF030C3B79F0B8580A57ACEAB03DA553, ED2K: AAAE8D67E19747F727A530F63AF731F3
Screenshots
screenshotscreenshotscreenshotscreenshotscreenshot
SubtitlesAll Attachments | Akatomba-kBaraka [eng, ASS]
Additional Info
General
Unique ID                                : 61931695822457119680383509018869124352 (0x2E979C5A0DD3DD8716440E81ECDA4D00)
Complete name                            : [zza] Mob Psycho 100 - S01 - SP - 01 [1080p.x265].mkv
Format                                   : Matroska
Format version                           : Version 4
File size                                : 16.2 MiB
Duration                                 : 7 min 22 s
Overall bit rate                         : 307 kb/s
Encoded date                             : UTC 2020-08-01 09:40:30
Writing application                      : mkvmerge v46.0.0 ('No Deeper Escape') 64-bit
Writing library                          : libebml v1.3.10 + libmatroska v1.5.2
Attachments                              : chalkdust.ttf / DSAccent.ttf / Montara-Bold.otf / Montara-Gothic.ttf / Montara-Italic_0.ttf / PIXELADE.TTF / RaysHand Regular.ttf / SMW2-Yoshis-Island.ttf

Video
ID                                       : 1
Format                                   : HEVC
Format/Info                              : High Efficiency Video Coding
Format profile                           : Main 10@L5@Main
Codec ID                                 : V_MPEGH/ISO/HEVC
Duration                                 : 7 min 22 s
Bit rate                                 : 106 kb/s
Width                                    : 1 920 pixels
Height                                   : 1 080 pixels
Display aspect ratio                     : 16:9
Frame rate mode                          : Variable
Frame rate                               : 23.976 (23976/1000) FPS
Original frame rate                      : 23.976 (24000/1001) FPS
Color space                              : YUV
Chroma subsampling                       : 4:2:0
Bit depth                                : 10 bits
Bits/(Pixel*Frame)                       : 0.002
Stream size                              : 5.61 MiB (35%)
Language                                 : zza
Default                                  : Yes
Forced                                   : No

Audio
ID                                       : 2
Format                                   : AAC LC
Format/Info                              : Advanced Audio Codec Low Complexity
Codec ID                                 : A_AAC-2
Duration                                 : 7 min 22 s
Bit rate                                 : 192 kb/s
Channel(s)                               : 2 channels
Channel layout                           : L R
Sampling rate                            : 48.0 kHz
Frame rate                               : 46.875 FPS (1024 SPF)
Compression mode                         : Lossy
Stream size                              : 10.1 MiB (62%)
Language                                 : Japanese
Default                                  : Yes
Forced                                   : No

Text
ID                                       : 3
Format                                   : ASS
Codec ID                                 : S_TEXT/ASS
Codec ID/Info                            : Advanced Sub Station Alpha
Duration                                 : 7 min 5 s
Bit rate                                 : 263 b/s
Count of elements                        : 180
Compression mode                         : Lossless
Stream size                              : 13.7 KiB (0%)
Title                                    : Akatomba-kBaraka
Language                                 : English
Default                                  : Yes
Forced                                   : No

Menu
00:00:00.000                             : The Unoccupied Building Continued
00:01:57.030                             : Reigen's Miscalculation
00:04:54.370                             : How to Spot a One-Click Curse
00:07:07.594                             : Credits

Other Files in this Torrent
Mob Psycho 100 - S01/SPED/[zza] Mob Psycho 100 - S01 - SP - 01 [1080p.x265].mkv
beta
Anime DDL+NZB mirror
Current Time: 21/02/2024 20:48



About/FAQs

Discord