Mob Psycho 100 - S01/SPED/[zza] Mob Psycho 100 - S01 - SP - 04 [1080p.x265].mkv


File Size13.60 MB (14,257,201 bytes)
DownloadAnonFiles | ClickNUpload | DropAPK | Free | MultiUp
  • BdUpload
  • DownAce
  • Fichier
  • FileCloud
  • Filerio
  • FilesCdn
  • IndiShare
  • Kbagi
  • Turbobit
  • UpToBox
  • Uppit
| Sendspace | SolidFiles | ZippyShare
HashesCRC32: 4C8F38C8, MD5: AEDAD3641D3982227CBE7D11DB8E9BE6, SHA1: 6DFD9ED18215C7157BD421A157ACEA11FFB72C77, SHA256: 156DD7CE641AA1999DBC96DB8D267B51BF6653F80C21E5427E1DAC8441464BB2, ED2K: DC21F8407263D625F7A1B3F59BCB2432
Screenshots
screenshotscreenshotscreenshotscreenshotscreenshot
SubtitlesAll Attachments | Akatomba-kBaraka [eng, ASS]
Additional Info
General
Unique ID                                : 10933882939063161288517504293938600954 (0x839CA0CAFAD5D4419FDDFFB44131BFA)
Complete name                            : [zza] Mob Psycho 100 - S01 - SP - 04 [1080p.x265].mkv
Format                                   : Matroska
Format version                           : Version 4
File size                                : 13.6 MiB
Duration                                 : 6 min 12 s
Overall bit rate                         : 306 kb/s
Encoded date                             : UTC 2020-08-01 09:42:31
Writing application                      : mkvmerge v46.0.0 ('No Deeper Escape') 64-bit
Writing library                          : libebml v1.3.10 + libmatroska v1.5.2
Attachments                              : Montara-Gothic.ttf / Montara-Italic_0.ttf / PIXEARG.TTF / PIXELADE.TTF

Video
ID                                       : 1
Format                                   : HEVC
Format/Info                              : High Efficiency Video Coding
Format profile                           : Main 10@L5@Main
Codec ID                                 : V_MPEGH/ISO/HEVC
Duration                                 : 6 min 12 s
Bit rate                                 : 112 kb/s
Width                                    : 1 920 pixels
Height                                   : 1 080 pixels
Display aspect ratio                     : 16:9
Frame rate mode                          : Variable
Frame rate                               : 23.976 (23976/1000) FPS
Original frame rate                      : 23.976 (24000/1001) FPS
Color space                              : YUV
Chroma subsampling                       : 4:2:0
Bit depth                                : 10 bits
Bits/(Pixel*Frame)                       : 0.002
Stream size                              : 4.96 MiB (37%)
Language                                 : zza
Default                                  : Yes
Forced                                   : No

Audio
ID                                       : 2
Format                                   : AAC LC
Format/Info                              : Advanced Audio Codec Low Complexity
Codec ID                                 : A_AAC-2
Duration                                 : 6 min 12 s
Bit rate                                 : 192 kb/s
Channel(s)                               : 2 channels
Channel layout                           : L R
Sampling rate                            : 48.0 kHz
Frame rate                               : 46.875 FPS (1024 SPF)
Compression mode                         : Lossy
Stream size                              : 8.36 MiB (61%)
Language                                 : Japanese
Default                                  : Yes
Forced                                   : No

Text
ID                                       : 3
Format                                   : ASS
Codec ID                                 : S_TEXT/ASS
Codec ID/Info                            : Advanced Sub Station Alpha
Duration                                 : 5 min 55 s
Bit rate                                 : 152 b/s
Count of elements                        : 119
Compression mode                         : Lossless
Stream size                              : 6.62 KiB (0%)
Title                                    : Akatomba-kBaraka
Language                                 : English
Default                                  : Yes
Forced                                   : No

Menu
00:00:00.000                             : Ritsu's Awakening
00:01:35.510                             : True Power
00:03:19.950                             : Morimusha
00:05:57.440                             : Credits

Other Files in this Torrent
Mob Psycho 100 - S01/SPED/[zza] Mob Psycho 100 - S01 - SP - 04 [1080p.x265].mkv
beta
Anime DDL+NZB mirror
Current Time: 22/04/2024 13:51



About/FAQs

Discord