Mob Psycho 100 - S02/[zza] Mob Psycho 100 - S02 - 13 [1080p.x265].mkv


File Size363.4 MB (381,015,682 bytes)
DownloadAnonFiles | ClickNUpload | DropAPK | Free | MultiUp
  • BdUpload
  • DownAce
  • Fichier
  • FileCloud
  • Filerio
  • FilesCdn
  • IndiShare
  • Kbagi
  • Turbobit
  • UpToBox
  • Uppit
| SolidFiles | ZippyShare
Sendspace: Part1, Part2
HashesCRC32: 241DF313, MD5: 231B55A0FDD606DBCEF863B95946BC8B, SHA1: 7C73ACC7D70CE0B882A292BD8EE5C1A45B30D9B8, SHA256: 4E6CED6E3414DA4739A5826C14E2A60D4A80406723552F3664409FC33530CA4F, ED2K: D7E060CEF7E2DD8AF931962A6BB17129
Screenshots
screenshotscreenshotscreenshotscreenshotscreenshot
SubtitlesAll Attachments | English [eng, ASS], Arabic [ara, ASS], French [fre, ASS], German [ger, ASS], Italian [ita, ASS], Portuguese [por, ASS], Russian [rus, ASS], Spanish1 [spa, ASS], Spanish2 [spa, ASS]
Additional Info
General
Unique ID                                : 78071581640738782926866451027457350029 (0x3ABC0A290ADA040F8661F97B5556198D)
Complete name                            : [zza] Mob Psycho 100 - S02 - 13 [1080p.x265].mkv
Format                                   : Matroska
Format version                           : Version 4
File size                                : 363 MiB
Duration                                 : 24 min 11 s
Overall bit rate                         : 2 100 kb/s
Movie name                               : [zza] Mob Psycho 100 - S02 - 13 - Boss Fight ~The Final Light~
Encoded date                             : UTC 2020-07-31 22:45:49
Writing application                      : mkvmerge v46.0.0 ('No Deeper Escape') 64-bit
Writing library                          : libebml v1.3.10 + libmatroska v1.5.2
Cover                                    : Yes
Attachments                              : cover.jpg

Video
ID                                       : 1
Format                                   : HEVC
Format/Info                              : High Efficiency Video Coding
Format profile                           : Main 10@L5@Main
Codec ID                                 : V_MPEGH/ISO/HEVC
Duration                                 : 24 min 11 s
Bit rate                                 : 1 903 kb/s
Width                                    : 1 920 pixels
Height                                   : 1 080 pixels
Display aspect ratio                     : 16:9
Frame rate mode                          : Variable
Frame rate                               : 23.976 FPS
Color space                              : YUV
Chroma subsampling                       : 4:2:0
Bit depth                                : 10 bits
Bits/(Pixel*Frame)                       : 0.038
Stream size                              : 329 MiB (91%)
Language                                 : zza
Default                                  : Yes
Forced                                   : No
Color range                              : Limited

Audio
ID                                       : 2
Format                                   : AAC LC
Format/Info                              : Advanced Audio Codec Low Complexity
Codec ID                                 : A_AAC-2
Duration                                 : 24 min 11 s
Bit rate                                 : 192 kb/s
Channel(s)                               : 2 channels
Channel layout                           : L R
Sampling rate                            : 48.0 kHz
Frame rate                               : 46.875 FPS (1024 SPF)
Compression mode                         : Lossy
Stream size                              : 33.2 MiB (9%)
Language                                 : Japanese
Default                                  : Yes
Forced                                   : No

Text #1
ID                                       : 3
Format                                   : ASS
Codec ID                                 : S_TEXT/ASS
Codec ID/Info                            : Advanced Sub Station Alpha
Duration                                 : 24 min 3 s
Bit rate                                 : 149 b/s
Count of elements                        : 402
Compression mode                         : Lossless
Stream size                              : 26.3 KiB (0%)
Title                                    : English
Language                                 : English
Default                                  : Yes
Forced                                   : No

Text #2
ID                                       : 4
Format                                   : ASS
Codec ID                                 : S_TEXT/ASS
Codec ID/Info                            : Advanced Sub Station Alpha
Duration                                 : 24 min 3 s
Bit rate                                 : 183 b/s
Count of elements                        : 406
Compression mode                         : Lossless
Stream size                              : 32.3 KiB (0%)
Title                                    : Arabic
Language                                 : Arabic
Default                                  : No
Forced                                   : No

Text #3
ID                                       : 5
Format                                   : ASS
Codec ID                                 : S_TEXT/ASS
Codec ID/Info                            : Advanced Sub Station Alpha
Duration                                 : 22 min 37 s
Bit rate                                 : 150 b/s
Count of elements                        : 351
Compression mode                         : Lossless
Stream size                              : 25.0 KiB (0%)
Title                                    : French
Language                                 : French
Default                                  : No
Forced                                   : No

Text #4
ID                                       : 6
Format                                   : ASS
Codec ID                                 : S_TEXT/ASS
Codec ID/Info                            : Advanced Sub Station Alpha
Duration                                 : 24 min 3 s
Bit rate                                 : 213 b/s
Count of elements                        : 440
Compression mode                         : Lossless
Stream size                              : 37.7 KiB (0%)
Title                                    : German
Language                                 : German
Default                                  : No
Forced                                   : No

Text #5
ID                                       : 7
Format                                   : ASS
Codec ID                                 : S_TEXT/ASS
Codec ID/Info                            : Advanced Sub Station Alpha
Duration                                 : 22 min 47 s
Bit rate                                 : 164 b/s
Count of elements                        : 391
Compression mode                         : Lossless
Stream size                              : 27.5 KiB (0%)
Title                                    : Italian
Language                                 : Italian
Default                                  : No
Forced                                   : No

Text #6
ID                                       : 8
Format                                   : ASS
Codec ID                                 : S_TEXT/ASS
Codec ID/Info                            : Advanced Sub Station Alpha
Duration                                 : 24 min 3 s
Bit rate                                 : 154 b/s
Count of elements                        : 405
Compression mode                         : Lossless
Stream size                              : 27.2 KiB (0%)
Title                                    : Portuguese
Language                                 : Portuguese
Default                                  : No
Forced                                   : No

Text #7
ID                                       : 9
Format                                   : ASS
Codec ID                                 : S_TEXT/ASS
Codec ID/Info                            : Advanced Sub Station Alpha
Duration                                 : 22 min 48 s
Bit rate                                 : 199 b/s
Count of elements                        : 422
Compression mode                         : Lossless
Stream size                              : 33.2 KiB (0%)
Title                                    : Russian
Language                                 : Russian
Default                                  : No
Forced                                   : No

Text #8
ID                                       : 10
Format                                   : ASS
Codec ID                                 : S_TEXT/ASS
Codec ID/Info                            : Advanced Sub Station Alpha
Duration                                 : 22 min 37 s
Bit rate                                 : 121 b/s
Count of elements                        : 332
Compression mode                         : Lossless
Stream size                              : 20.2 KiB (0%)
Title                                    : Spanish1
Language                                 : Spanish
Default                                  : No
Forced                                   : No

Text #9
ID                                       : 11
Format                                   : ASS
Codec ID                                 : S_TEXT/ASS
Codec ID/Info                            : Advanced Sub Station Alpha
Duration                                 : 22 min 37 s
Bit rate                                 : 121 b/s
Count of elements                        : 332
Compression mode                         : Lossless
Stream size                              : 20.2 KiB (0%)
Title                                    : Spanish2
Language                                 : Spanish
Default                                  : No
Forced                                   : No

Menu
00:00:00.000                             : en:Chapitre 06
00:01:30.006                             : en:Chapitre 07
00:13:15.211                             : en:Chapitre 08
00:22:36.146                             : en:Chapitre 09

Other Files in this Torrent
Mob Psycho 100 - S02/[zza] Mob Psycho 100 - S02 - 13 [1080p.x265].mkv
beta
Anime DDL+NZB mirror
Current Time: 22/04/2024 06:19



About/FAQs

Discord