Mob Psycho 100 - S01/SPED/[zza] Mob Psycho 100 - S01 - SP - 06 [1080p.x265].mkv


File Size14.94 MB (15,667,408 bytes)
DownloadAnonFiles | ClickNUpload | DropAPK | Free | MultiUp
  • BdUpload
  • DownAce
  • Fichier
  • FileCloud
  • Filerio
  • FilesCdn
  • IndiShare
  • Kbagi
  • Turbobit
  • UpToBox
  • Uppit
| Sendspace | SolidFiles | ZippyShare
HashesCRC32: 218ECD55, MD5: 5DC3538B67CFFEB77E3365DB10DD588F, SHA1: DF8B1FE1CE03FE709A39666E8659A9564DBF41DA, SHA256: 512444F462065495BECDB236247C282C735502B355272A2BA114B16695152D8B, ED2K: 04E40159FBDC921A6F63F9216FF2BCF2
Screenshots
screenshotscreenshotscreenshotscreenshotscreenshot
SubtitlesAll Attachments | Akatomba-kBaraka [eng, ASS]
Additional Info
General
Unique ID                                : 223605947974830794081600966955885939497 (0xA838F0688400F96E6619F81708384B29)
Complete name                            : [zza] Mob Psycho 100 - S01 - SP - 06 [1080p.x265].mkv
Format                                   : Matroska
Format version                           : Version 4
File size                                : 14.9 MiB
Duration                                 : 6 min 7 s
Overall bit rate                         : 341 kb/s
Encoded date                             : UTC 2020-08-01 09:50:45
Writing application                      : mkvmerge v46.0.0 ('No Deeper Escape') 64-bit
Writing library                          : libebml v1.3.10 + libmatroska v1.5.2
Attachments                              : Montara-Gothic.ttf / PIXELADE.TTF

Video
ID                                       : 1
Format                                   : HEVC
Format/Info                              : High Efficiency Video Coding
Format profile                           : Main 10@L5@Main
Codec ID                                 : V_MPEGH/ISO/HEVC
Duration                                 : 6 min 7 s
Bit rate                                 : 149 kb/s
Width                                    : 1 920 pixels
Height                                   : 1 080 pixels
Display aspect ratio                     : 16:9
Frame rate mode                          : Variable
Frame rate                               : 23.976 (23976/1000) FPS
Original frame rate                      : 23.976 (24000/1001) FPS
Color space                              : YUV
Chroma subsampling                       : 4:2:0
Bit depth                                : 10 bits
Bits/(Pixel*Frame)                       : 0.003
Stream size                              : 6.54 MiB (44%)
Language                                 : zza
Default                                  : Yes
Forced                                   : No

Audio
ID                                       : 2
Format                                   : AAC LC
Format/Info                              : Advanced Audio Codec Low Complexity
Codec ID                                 : A_AAC-2
Duration                                 : 6 min 7 s
Bit rate                                 : 188 kb/s
Channel(s)                               : 2 channels
Channel layout                           : L R
Sampling rate                            : 48.0 kHz
Frame rate                               : 46.875 FPS (1024 SPF)
Compression mode                         : Lossy
Stream size                              : 8.24 MiB (55%)
Language                                 : Japanese
Default                                  : Yes
Forced                                   : No

Text
ID                                       : 3
Format                                   : ASS
Codec ID                                 : S_TEXT/ASS
Codec ID/Info                            : Advanced Sub Station Alpha
Duration                                 : 5 min 50 s
Bit rate                                 : 154 b/s
Count of elements                        : 121
Compression mode                         : Lossless
Stream size                              : 6.60 KiB (0%)
Title                                    : Akatomba-kBaraka
Language                                 : English
Default                                  : Yes
Forced                                   : No

Menu
00:00:00.000                             : The Symbol on His Forehead
00:01:33.510                             : The Secret of the Kageyama Family
00:04:03.530                             : Master and Student Collaboration
00:05:51.935                             : Credits

Other Files in this Torrent
Mob Psycho 100 - S01/SPED/[zza] Mob Psycho 100 - S01 - SP - 06 [1080p.x265].mkv
beta
Anime DDL+NZB mirror
Current Time: 21/02/2024 23:00



About/FAQs

Discord