Mob Psycho 100 - S01/[zza] Mob Psycho 100 - S01 - 11 [1080p.x265].mkv


File Size376.2 MB (394,490,666 bytes)
DownloadAnonFiles | ClickNUpload | DropAPK | Free | MultiUp
  • BdUpload
  • DownAce
  • Fichier
  • FileCloud
  • Filerio
  • FilesCdn
  • IndiShare
  • Kbagi
  • Turbobit
  • UpToBox
  • Uppit
| SolidFiles | ZippyShare
Sendspace: Part1, Part2
HashesCRC32: C0AF5C8F, MD5: 1DFF9D0057BBC3A91DC919666946BB57, SHA1: 7C6203D1F3EA176A29AC7717ACC4C60472C125C9, SHA256: 85D94A3B87F82B930157AF3B1DE1BDC721D04DBE0873286BE87B77B9095D87DA, ED2K: AB326F3A8618F4F45209F7BFD93437EF
Screenshots
screenshotscreenshotscreenshotscreenshotscreenshot
SubtitlesAll Attachments | English [eng, ASS], Arabic [ara, ASS], French [fre, ASS], German [ger, ASS], Italian [ita, ASS], Portuguese [por, ASS], Russian [rus, ASS]
Additional Info
General
Unique ID                                : 141911135654020556566593757951630732546 (0x6AC3172EED748795DC4977C0AC1B6D02)
Complete name                            : [zza] Mob Psycho 100 - S01 - 11 [1080p.x265].mkv
Format                                   : Matroska
Format version                           : Version 4
File size                                : 376 MiB
Duration                                 : 24 min 12 s
Overall bit rate                         : 2 173 kb/s
Movie name                               : [zza] Mob Psycho 100 - S01 - 11 - Master ~Leader~
Encoded date                             : UTC 2020-07-31 21:46:37
Writing application                      : mkvmerge v46.0.0 ('No Deeper Escape') 64-bit
Writing library                          : libebml v1.3.10 + libmatroska v1.5.2
Cover                                    : Yes
Attachments                              : cover.jpg

Video
ID                                       : 1
Format                                   : HEVC
Format/Info                              : High Efficiency Video Coding
Format profile                           : Main 10@L5@Main
Codec ID                                 : V_MPEGH/ISO/HEVC
Duration                                 : 24 min 12 s
Bit rate                                 : 1 973 kb/s
Width                                    : 1 920 pixels
Height                                   : 1 080 pixels
Display aspect ratio                     : 16:9
Frame rate mode                          : Variable
Frame rate                               : 23.976 FPS
Color space                              : YUV
Chroma subsampling                       : 4:2:0
Bit depth                                : 10 bits
Bits/(Pixel*Frame)                       : 0.040
Stream size                              : 342 MiB (91%)
Language                                 : zza
Default                                  : Yes
Forced                                   : No
Color range                              : Limited

Audio
ID                                       : 2
Format                                   : AAC LC
Format/Info                              : Advanced Audio Codec Low Complexity
Codec ID                                 : A_AAC-2
Duration                                 : 24 min 12 s
Bit rate                                 : 192 kb/s
Channel(s)                               : 2 channels
Channel layout                           : L R
Sampling rate                            : 48.0 kHz
Frame rate                               : 46.875 FPS (1024 SPF)
Compression mode                         : Lossy
Stream size                              : 33.2 MiB (9%)
Language                                 : Japanese
Default                                  : Yes
Forced                                   : No

Text #1
ID                                       : 3
Format                                   : ASS
Codec ID                                 : S_TEXT/ASS
Codec ID/Info                            : Advanced Sub Station Alpha
Duration                                 : 24 min 8 s
Bit rate                                 : 157 b/s
Count of elements                        : 449
Compression mode                         : Lossless
Stream size                              : 27.9 KiB (0%)
Title                                    : English
Language                                 : English
Default                                  : Yes
Forced                                   : No

Text #2
ID                                       : 4
Format                                   : ASS
Codec ID                                 : S_TEXT/ASS
Codec ID/Info                            : Advanced Sub Station Alpha
Duration                                 : 24 min 8 s
Bit rate                                 : 190 b/s
Count of elements                        : 437
Compression mode                         : Lossless
Stream size                              : 33.7 KiB (0%)
Title                                    : Arabic
Language                                 : Arabic
Default                                  : No
Forced                                   : No

Text #3
ID                                       : 5
Format                                   : ASS
Codec ID                                 : S_TEXT/ASS
Codec ID/Info                            : Advanced Sub Station Alpha
Duration                                 : 24 min 8 s
Bit rate                                 : 161 b/s
Count of elements                        : 401
Compression mode                         : Lossless
Stream size                              : 28.6 KiB (0%)
Title                                    : French
Language                                 : French
Default                                  : No
Forced                                   : No

Text #4
ID                                       : 6
Format                                   : ASS
Codec ID                                 : S_TEXT/ASS
Codec ID/Info                            : Advanced Sub Station Alpha
Duration                                 : 24 min 8 s
Bit rate                                 : 162 b/s
Count of elements                        : 494
Compression mode                         : Lossless
Stream size                              : 28.7 KiB (0%)
Title                                    : German
Language                                 : German
Default                                  : No
Forced                                   : No

Text #5
ID                                       : 7
Format                                   : ASS
Codec ID                                 : S_TEXT/ASS
Codec ID/Info                            : Advanced Sub Station Alpha
Duration                                 : 24 min 8 s
Bit rate                                 : 166 b/s
Count of elements                        : 441
Compression mode                         : Lossless
Stream size                              : 29.5 KiB (0%)
Title                                    : Italian
Language                                 : Italian
Default                                  : No
Forced                                   : No

Text #6
ID                                       : 8
Format                                   : ASS
Codec ID                                 : S_TEXT/ASS
Codec ID/Info                            : Advanced Sub Station Alpha
Duration                                 : 24 min 8 s
Bit rate                                 : 158 b/s
Count of elements                        : 441
Compression mode                         : Lossless
Stream size                              : 28.1 KiB (0%)
Title                                    : Portuguese
Language                                 : Portuguese
Default                                  : No
Forced                                   : No

Text #7
ID                                       : 9
Format                                   : ASS
Codec ID                                 : S_TEXT/ASS
Codec ID/Info                            : Advanced Sub Station Alpha
Duration                                 : 24 min 8 s
Bit rate                                 : 197 b/s
Count of elements                        : 443
Compression mode                         : Lossless
Stream size                              : 34.9 KiB (0%)
Title                                    : Russian
Language                                 : Russian
Default                                  : No
Forced                                   : No

Menu
00:00:00.000                             : en:Chapitre 01
00:00:33.033                             : en:Chapitre 02
00:02:02.997                             : en:Chapitre 03
00:10:55.988                             : en:Chapitre 04
00:22:25.010                             : en:Chapitre 05
00:23:54.975                             : en:Chapitre 06

Other Files in this Torrent
Mob Psycho 100 - S01/[zza] Mob Psycho 100 - S01 - 11 [1080p.x265].mkv
beta
Anime DDL+NZB mirror
Current Time: 22/04/2024 12:31



About/FAQs

Discord