Mob Psycho 100 - S02/[zza] Mob Psycho 100 - S02 - 05 [1080p.x265].mkv


File Size314.3 MB (329,563,774 bytes)
DownloadAnonFiles | ClickNUpload | DropAPK | Free | MultiUp
  • BdUpload
  • DownAce
  • Fichier
  • FileCloud
  • Filerio
  • FilesCdn
  • IndiShare
  • Kbagi
  • Turbobit
  • UpToBox
  • Uppit
| SolidFiles | ZippyShare
Sendspace: Part1, Part2
HashesCRC32: 461BD538, MD5: 595F142F9348C4196FF11F46F05C4A4C, SHA1: 7375BB9C232D34BB4560880D9C4C795B0382237A, SHA256: C9970768BC52880973A48DABE6A02A0A29DB96385969F3113E64E4F96DBC79F6, ED2K: 90B6B0399E071C0472CB4940FD58E08E
Screenshots
screenshotscreenshotscreenshotscreenshotscreenshot
SubtitlesAll Attachments | English [eng, ASS], Arabic [ara, ASS], French [fre, ASS], German [ger, ASS], Italian [ita, ASS], Portuguese [por, ASS], Russian [rus, ASS], Spanish1 [spa, ASS], Spanish2 [spa, ASS]
Additional Info
General
Unique ID                                : 7994572977551891111815778802631480961 (0x603B2E136FF4172BC9E2BA50C609681)
Complete name                            : [zza] Mob Psycho 100 - S02 - 05 [1080p.x265].mkv
Format                                   : Matroska
Format version                           : Version 4
File size                                : 314 MiB
Duration                                 : 24 min 11 s
Overall bit rate                         : 1 816 kb/s
Movie name                               : [zza] Mob Psycho 100 - S02 - 05 - Discord ~Choices~
Encoded date                             : UTC 2020-07-31 22:43:39
Writing application                      : mkvmerge v46.0.0 ('No Deeper Escape') 64-bit
Writing library                          : libebml v1.3.10 + libmatroska v1.5.2
Cover                                    : Yes
Attachments                              : cover.jpg

Video
ID                                       : 1
Format                                   : HEVC
Format/Info                              : High Efficiency Video Coding
Format profile                           : Main 10@L5@Main
Codec ID                                 : V_MPEGH/ISO/HEVC
Duration                                 : 24 min 11 s
Bit rate                                 : 1 619 kb/s
Width                                    : 1 920 pixels
Height                                   : 1 080 pixels
Display aspect ratio                     : 16:9
Frame rate mode                          : Variable
Frame rate                               : 23.976 FPS
Color space                              : YUV
Chroma subsampling                       : 4:2:0
Bit depth                                : 10 bits
Bits/(Pixel*Frame)                       : 0.033
Stream size                              : 280 MiB (89%)
Language                                 : zza
Default                                  : Yes
Forced                                   : No
Color range                              : Limited

Audio
ID                                       : 2
Format                                   : AAC LC
Format/Info                              : Advanced Audio Codec Low Complexity
Codec ID                                 : A_AAC-2
Duration                                 : 24 min 11 s
Bit rate                                 : 192 kb/s
Channel(s)                               : 2 channels
Channel layout                           : L R
Sampling rate                            : 48.0 kHz
Frame rate                               : 46.875 FPS (1024 SPF)
Compression mode                         : Lossy
Stream size                              : 33.2 MiB (11%)
Language                                 : Japanese
Default                                  : Yes
Forced                                   : No

Text #1
ID                                       : 3
Format                                   : ASS
Codec ID                                 : S_TEXT/ASS
Codec ID/Info                            : Advanced Sub Station Alpha
Duration                                 : 24 min 8 s
Bit rate                                 : 148 b/s
Count of elements                        : 384
Compression mode                         : Lossless
Stream size                              : 26.2 KiB (0%)
Title                                    : English
Language                                 : English
Default                                  : Yes
Forced                                   : No

Text #2
ID                                       : 4
Format                                   : ASS
Codec ID                                 : S_TEXT/ASS
Codec ID/Info                            : Advanced Sub Station Alpha
Duration                                 : 24 min 8 s
Bit rate                                 : 183 b/s
Count of elements                        : 381
Compression mode                         : Lossless
Stream size                              : 32.5 KiB (0%)
Title                                    : Arabic
Language                                 : Arabic
Default                                  : No
Forced                                   : No

Text #3
ID                                       : 5
Format                                   : ASS
Codec ID                                 : S_TEXT/ASS
Codec ID/Info                            : Advanced Sub Station Alpha
Duration                                 : 24 min 7 s
Bit rate                                 : 145 b/s
Count of elements                        : 348
Compression mode                         : Lossless
Stream size                              : 25.7 KiB (0%)
Title                                    : French
Language                                 : French
Default                                  : No
Forced                                   : No

Text #4
ID                                       : 6
Format                                   : ASS
Codec ID                                 : S_TEXT/ASS
Codec ID/Info                            : Advanced Sub Station Alpha
Duration                                 : 24 min 8 s
Bit rate                                 : 305 b/s
Count of elements                        : 384
Compression mode                         : Lossless
Stream size                              : 54.1 KiB (0%)
Title                                    : German
Language                                 : German
Default                                  : No
Forced                                   : No

Text #5
ID                                       : 7
Format                                   : ASS
Codec ID                                 : S_TEXT/ASS
Codec ID/Info                            : Advanced Sub Station Alpha
Duration                                 : 24 min 8 s
Bit rate                                 : 250 b/s
Count of elements                        : 519
Compression mode                         : Lossless
Stream size                              : 44.2 KiB (0%)
Title                                    : Italian
Language                                 : Italian
Default                                  : No
Forced                                   : No

Text #6
ID                                       : 8
Format                                   : ASS
Codec ID                                 : S_TEXT/ASS
Codec ID/Info                            : Advanced Sub Station Alpha
Duration                                 : 24 min 8 s
Bit rate                                 : 148 b/s
Count of elements                        : 385
Compression mode                         : Lossless
Stream size                              : 26.2 KiB (0%)
Title                                    : Portuguese
Language                                 : Portuguese
Default                                  : No
Forced                                   : No

Text #7
ID                                       : 9
Format                                   : ASS
Codec ID                                 : S_TEXT/ASS
Codec ID/Info                            : Advanced Sub Station Alpha
Duration                                 : 24 min 8 s
Bit rate                                 : 193 b/s
Count of elements                        : 417
Compression mode                         : Lossless
Stream size                              : 34.2 KiB (0%)
Title                                    : Russian
Language                                 : Russian
Default                                  : No
Forced                                   : No

Text #8
ID                                       : 10
Format                                   : ASS
Codec ID                                 : S_TEXT/ASS
Codec ID/Info                            : Advanced Sub Station Alpha
Duration                                 : 24 min 10 s
Bit rate                                 : 116 b/s
Count of elements                        : 340
Compression mode                         : Lossless
Stream size                              : 20.6 KiB (0%)
Title                                    : Spanish1
Language                                 : Spanish
Default                                  : No
Forced                                   : No

Text #9
ID                                       : 11
Format                                   : ASS
Codec ID                                 : S_TEXT/ASS
Codec ID/Info                            : Advanced Sub Station Alpha
Duration                                 : 24 min 10 s
Bit rate                                 : 116 b/s
Count of elements                        : 340
Compression mode                         : Lossless
Stream size                              : 20.6 KiB (0%)
Title                                    : Spanish2
Language                                 : Spanish
Default                                  : No
Forced                                   : No

Menu
00:00:00.000                             : en:Chapitre 07
00:00:10.010                             : en:Chapitre 08
00:01:40.016                             : en:Chapitre 09
00:13:40.236                             : en:Chapitre 10
00:22:27.721                             : en:Chapitre 11
00:23:55.183                             : en:Chapitre 12

Other Files in this Torrent
Mob Psycho 100 - S02/[zza] Mob Psycho 100 - S02 - 05 [1080p.x265].mkv
beta
Anime DDL+NZB mirror
Current Time: 22/04/2024 12:46



About/FAQs

Discord