Mob Psycho 100 - S01/SPED/[zza] Mob Psycho 100 - S01 - SP - 03 [1080p.x265].mkv


File Size20.53 MB (21,529,877 bytes)
DownloadAnonFiles | ClickNUpload | DropAPK | Free | MultiUp
  • BdUpload
  • DownAce
  • Fichier
  • FileCloud
  • Filerio
  • FilesCdn
  • IndiShare
  • Kbagi
  • Turbobit
  • UpToBox
  • Uppit
| Sendspace | SolidFiles | ZippyShare
HashesCRC32: 2F032555, MD5: E0ADEC7BF57FE710B7484315C7888FF8, SHA1: 4E9C29317CCEBCBD41C6ED10D675D9FB49276EDE, SHA256: EE211606FCFA76B1F72EC395BDAA37EB62FAE1746FFC295BE1FFA806E4D67AE7, ED2K: 35DA69D8647D6FBD3CC3D97EF2524F4F
Screenshots
screenshotscreenshotscreenshotscreenshotscreenshot
SubtitlesAll Attachments | Idle Modified\Akatomba-kBaraka [eng, ASS], Original\Akatomba-kBaraka [eng, ASS]
Additional Info
General
Unique ID                                : 97085327491302487388768511561350689822 (0x4909F4354166E39D7FFAE3A45806B41E)
Complete name                            : [zza] Mob Psycho 100 - S01 - SP - 03 [1080p.x265].mkv
Format                                   : Matroska
Format version                           : Version 4
File size                                : 20.5 MiB
Duration                                 : 8 min 10 s
Overall bit rate                         : 351 kb/s
Encoded date                             : UTC 2020-08-01 09:42:28
Writing application                      : mkvmerge v46.0.0 ('No Deeper Escape') 64-bit
Writing library                          : libebml v1.3.10 + libmatroska v1.5.2
Attachments                              : Montara-Gothic.ttf / Montara-Italic_0.ttf / PIXELADE.TTF / Pixel-Noir Skinny Short.ttf / Montara-Gothic.ttf / Montara-Italic_0.ttf / PIXELADE.TTF / Pixel-Noir Skinny Short.ttf

Video
ID                                       : 1
Format                                   : HEVC
Format/Info                              : High Efficiency Video Coding
Format profile                           : Main 10@L5@Main
Codec ID                                 : V_MPEGH/ISO/HEVC
Duration                                 : 8 min 10 s
Bit rate                                 : 154 kb/s
Width                                    : 1 920 pixels
Height                                   : 1 080 pixels
Display aspect ratio                     : 16:9
Frame rate mode                          : Variable
Frame rate                               : 23.976 (23976/1000) FPS
Original frame rate                      : 23.976 (24000/1001) FPS
Color space                              : YUV
Chroma subsampling                       : 4:2:0
Bit depth                                : 10 bits
Bits/(Pixel*Frame)                       : 0.003
Stream size                              : 8.99 MiB (44%)
Language                                 : zza
Default                                  : Yes
Forced                                   : No

Audio
ID                                       : 2
Format                                   : AAC LC
Format/Info                              : Advanced Audio Codec Low Complexity
Codec ID                                 : A_AAC-2
Duration                                 : 8 min 10 s
Bit rate                                 : 192 kb/s
Channel(s)                               : 2 channels
Channel layout                           : L R
Sampling rate                            : 48.0 kHz
Frame rate                               : 46.875 FPS (1024 SPF)
Compression mode                         : Lossy
Stream size                              : 11.1 MiB (54%)
Language                                 : Japanese
Default                                  : Yes
Forced                                   : No

Text #1
ID                                       : 3
Format                                   : ASS
Codec ID                                 : S_TEXT/ASS
Codec ID/Info                            : Advanced Sub Station Alpha
Duration                                 : 7 min 53 s
Bit rate                                 : 290 b/s
Count of elements                        : 218
Compression mode                         : Lossless
Stream size                              : 16.8 KiB (0%)
Title                                    : Idle Modified\Akatomba-kBaraka
Language                                 : English
Default                                  : Yes
Forced                                   : No

Text #2
ID                                       : 4
Format                                   : ASS
Codec ID                                 : S_TEXT/ASS
Codec ID/Info                            : Advanced Sub Station Alpha
Duration                                 : 7 min 53 s
Bit rate                                 : 216 b/s
Count of elements                        : 172
Compression mode                         : Lossless
Stream size                              : 12.5 KiB (0%)
Title                                    : Original\Akatomba-kBaraka
Language                                 : English
Default                                  : No
Forced                                   : No

Menu
00:00:00.000                             : The Never-Ending Body Improvement Club
00:02:42.410                             : Tome's Trump Card
00:04:45.410                             : The Battle for the Top
00:07:55.308                             : Credits

Other Files in this Torrent
Mob Psycho 100 - S01/SPED/[zza] Mob Psycho 100 - S01 - SP - 03 [1080p.x265].mkv
beta
Anime DDL+NZB mirror
Current Time: 22/04/2024 13:35



About/FAQs

Discord