Mob Psycho 100 - S01/[zza] Mob Psycho 100 - S01 - 08 [1080p.x265].mkv


File Size319.6 MB (335,154,520 bytes)
DownloadAnonFiles | ClickNUpload | DropAPK | Free | MultiUp
  • BdUpload
  • DownAce
  • Fichier
  • FileCloud
  • Filerio
  • FilesCdn
  • IndiShare
  • Kbagi
  • Turbobit
  • UpToBox
  • Uppit
| SolidFiles | ZippyShare
Sendspace: Part1, Part2
HashesCRC32: E04DE34B, MD5: B06DDEEC2B950EE6680D451563DCB630, SHA1: 8E718D0BA504AC3B4643BB9AF640BA4BCC91E630, SHA256: 9E8941470E3B5668E1360B443498302B259392CF1FBE7DDA5804D165F6D17ECD, ED2K: C7CF99954F1147F3C24094A73E691A92
Screenshots
screenshotscreenshotscreenshotscreenshotscreenshot
SubtitlesAll Attachments | English [eng, ASS], Arabic [ara, ASS], French [fre, ASS], German [ger, ASS], Italian [ita, ASS], Portuguese [por, ASS], Russian [rus, ASS]
Additional Info
General
Unique ID                                : 219618331373768609909961139103156376850 (0xA538F3BB0CDBBC120DDDDEE1C8139512)
Complete name                            : [zza] Mob Psycho 100 - S01 - 08 [1080p.x265].mkv
Format                                   : Matroska
Format version                           : Version 4
File size                                : 320 MiB
Duration                                 : 24 min 11 s
Overall bit rate                         : 1 848 kb/s
Movie name                               : [zza] Mob Psycho 100 - S01 - 08 - The Older Brother Bows ~Destructive Intent~
Encoded date                             : UTC 2020-07-31 21:43:52
Writing application                      : mkvmerge v46.0.0 ('No Deeper Escape') 64-bit
Writing library                          : libebml v1.3.10 + libmatroska v1.5.2
Cover                                    : Yes
Attachments                              : cover.jpg

Video
ID                                       : 1
Format                                   : HEVC
Format/Info                              : High Efficiency Video Coding
Format profile                           : Main 10@L5@Main
Codec ID                                 : V_MPEGH/ISO/HEVC
Duration                                 : 24 min 11 s
Bit rate                                 : 1 647 kb/s
Width                                    : 1 920 pixels
Height                                   : 1 080 pixels
Display aspect ratio                     : 16:9
Frame rate mode                          : Variable
Frame rate                               : 23.976 FPS
Color space                              : YUV
Chroma subsampling                       : 4:2:0
Bit depth                                : 10 bits
Bits/(Pixel*Frame)                       : 0.033
Stream size                              : 285 MiB (89%)
Language                                 : zza
Default                                  : Yes
Forced                                   : No
Color range                              : Limited

Audio
ID                                       : 2
Format                                   : AAC LC
Format/Info                              : Advanced Audio Codec Low Complexity
Codec ID                                 : A_AAC-2
Duration                                 : 24 min 11 s
Bit rate                                 : 192 kb/s
Channel(s)                               : 2 channels
Channel layout                           : L R
Sampling rate                            : 48.0 kHz
Frame rate                               : 46.875 FPS (1024 SPF)
Compression mode                         : Lossy
Stream size                              : 33.3 MiB (10%)
Language                                 : Japanese
Default                                  : Yes
Forced                                   : No

Text #1
ID                                       : 3
Format                                   : ASS
Codec ID                                 : S_TEXT/ASS
Codec ID/Info                            : Advanced Sub Station Alpha
Duration                                 : 24 min 9 s
Bit rate                                 : 152 b/s
Count of elements                        : 441
Compression mode                         : Lossless
Stream size                              : 26.9 KiB (0%)
Title                                    : English
Language                                 : English
Default                                  : Yes
Forced                                   : No

Text #2
ID                                       : 4
Format                                   : ASS
Codec ID                                 : S_TEXT/ASS
Codec ID/Info                            : Advanced Sub Station Alpha
Duration                                 : 24 min 9 s
Bit rate                                 : 184 b/s
Count of elements                        : 436
Compression mode                         : Lossless
Stream size                              : 32.6 KiB (0%)
Title                                    : Arabic
Language                                 : Arabic
Default                                  : No
Forced                                   : No

Text #3
ID                                       : 5
Format                                   : ASS
Codec ID                                 : S_TEXT/ASS
Codec ID/Info                            : Advanced Sub Station Alpha
Duration                                 : 24 min 8 s
Bit rate                                 : 155 b/s
Count of elements                        : 411
Compression mode                         : Lossless
Stream size                              : 27.6 KiB (0%)
Title                                    : French
Language                                 : French
Default                                  : No
Forced                                   : No

Text #4
ID                                       : 6
Format                                   : ASS
Codec ID                                 : S_TEXT/ASS
Codec ID/Info                            : Advanced Sub Station Alpha
Duration                                 : 24 min 9 s
Bit rate                                 : 154 b/s
Count of elements                        : 451
Compression mode                         : Lossless
Stream size                              : 27.4 KiB (0%)
Title                                    : German
Language                                 : German
Default                                  : No
Forced                                   : No

Text #5
ID                                       : 7
Format                                   : ASS
Codec ID                                 : S_TEXT/ASS
Codec ID/Info                            : Advanced Sub Station Alpha
Duration                                 : 24 min 9 s
Bit rate                                 : 160 b/s
Count of elements                        : 437
Compression mode                         : Lossless
Stream size                              : 28.4 KiB (0%)
Title                                    : Italian
Language                                 : Italian
Default                                  : No
Forced                                   : No

Text #6
ID                                       : 8
Format                                   : ASS
Codec ID                                 : S_TEXT/ASS
Codec ID/Info                            : Advanced Sub Station Alpha
Duration                                 : 24 min 9 s
Bit rate                                 : 153 b/s
Count of elements                        : 436
Compression mode                         : Lossless
Stream size                              : 27.2 KiB (0%)
Title                                    : Portuguese
Language                                 : Portuguese
Default                                  : No
Forced                                   : No

Text #7
ID                                       : 9
Format                                   : ASS
Codec ID                                 : S_TEXT/ASS
Codec ID/Info                            : Advanced Sub Station Alpha
Duration                                 : 24 min 9 s
Bit rate                                 : 190 b/s
Count of elements                        : 434
Compression mode                         : Lossless
Stream size                              : 33.7 KiB (0%)
Title                                    : Russian
Language                                 : Russian
Default                                  : No
Forced                                   : No

Menu
00:00:00.000                             : en:Chapitre 07
00:00:54.054                             : en:Chapitre 08
00:02:24.018                             : en:Chapitre 09
00:13:22.009                             : en:Chapitre 10
00:22:59.211                             : en:Chapitre 11
00:23:54.975                             : en:Chapitre 12

Other Files in this Torrent
Mob Psycho 100 - S01/[zza] Mob Psycho 100 - S01 - 08 [1080p.x265].mkv
beta
Anime DDL+NZB mirror
Current Time: 27/05/2024 12:24



About/FAQs

Discord