Mob Psycho 100 - S01/[zza] Mob Psycho 100 - S01 - 04 [1080p.x265].mkv


File Size366.7 MB (384,473,655 bytes)
DownloadAnonFiles | ClickNUpload | DropAPK | Free | MultiUp
  • BdUpload
  • DownAce
  • Fichier
  • FileCloud
  • Filerio
  • FilesCdn
  • IndiShare
  • Kbagi
  • Turbobit
  • UpToBox
  • Uppit
| SolidFiles | ZippyShare
Sendspace: Part1, Part2
HashesCRC32: 4F7E1487, MD5: 0B3B58429F338C5A328DDD058DFD4120, SHA1: 515923F63F0A24101EC45E3AEFDC7B6C74546BF5, SHA256: 93392CE874ED7A1734848284E67E8C066F3C8793499FD859B55FBFB854444C3B, ED2K: 523FA00E26FE019F4B0BC38E4FE36D8A
Screenshots
screenshotscreenshotscreenshotscreenshotscreenshot
SubtitlesAll Attachments | English [eng, ASS], Arabic [ara, ASS], French [fre, ASS], German [ger, ASS], Italian [ita, ASS], Portuguese [por, ASS], Russian [rus, ASS]
Additional Info
General
Unique ID                                : 92104978975122098539466946868902885042 (0x454AC6116F513B8C69E53FA384BBF6B2)
Complete name                            : [zza] Mob Psycho 100 - S01 - 04 [1080p.x265].mkv
Format                                   : Matroska
Format version                           : Version 4
File size                                : 367 MiB
Duration                                 : 24 min 11 s
Overall bit rate                         : 2 120 kb/s
Movie name                               : [zza] Mob Psycho 100 - S01 - 04 - Idiots Only Event ~Kin~
Encoded date                             : UTC 2020-07-31 21:40:53
Writing application                      : mkvmerge v46.0.0 ('No Deeper Escape') 64-bit
Writing library                          : libebml v1.3.10 + libmatroska v1.5.2
Cover                                    : Yes
Attachments                              : cover.jpg

Video
ID                                       : 1
Format                                   : HEVC
Format/Info                              : High Efficiency Video Coding
Format profile                           : Main 10@L5@Main
Codec ID                                 : V_MPEGH/ISO/HEVC
Duration                                 : 24 min 11 s
Bit rate                                 : 1 919 kb/s
Width                                    : 1 920 pixels
Height                                   : 1 080 pixels
Display aspect ratio                     : 16:9
Frame rate mode                          : Variable
Frame rate                               : 23.976 (23976/1000) FPS
Original frame rate                      : 23.976 (24000/1001) FPS
Color space                              : YUV
Chroma subsampling                       : 4:2:0
Bit depth                                : 10 bits
Bits/(Pixel*Frame)                       : 0.039
Stream size                              : 332 MiB (91%)
Language                                 : zza
Default                                  : Yes
Forced                                   : No
Color range                              : Limited

Audio
ID                                       : 2
Format                                   : AAC LC
Format/Info                              : Advanced Audio Codec Low Complexity
Codec ID                                 : A_AAC-2
Duration                                 : 24 min 11 s
Bit rate                                 : 192 kb/s
Channel(s)                               : 2 channels
Channel layout                           : L R
Sampling rate                            : 48.0 kHz
Frame rate                               : 46.875 FPS (1024 SPF)
Compression mode                         : Lossy
Delay relative to video                  : 30 ms
Stream size                              : 33.3 MiB (9%)
Language                                 : Japanese
Default                                  : Yes
Forced                                   : No

Text #1
ID                                       : 3
Format                                   : ASS
Codec ID                                 : S_TEXT/ASS
Codec ID/Info                            : Advanced Sub Station Alpha
Duration                                 : 24 min 9 s
Bit rate                                 : 169 b/s
Count of elements                        : 432
Compression mode                         : Lossless
Stream size                              : 29.9 KiB (0%)
Title                                    : English
Language                                 : English
Default                                  : Yes
Forced                                   : No

Text #2
ID                                       : 4
Format                                   : ASS
Codec ID                                 : S_TEXT/ASS
Codec ID/Info                            : Advanced Sub Station Alpha
Duration                                 : 24 min 9 s
Bit rate                                 : 212 b/s
Count of elements                        : 421
Compression mode                         : Lossless
Stream size                              : 37.7 KiB (0%)
Title                                    : Arabic
Language                                 : Arabic
Default                                  : No
Forced                                   : No

Text #3
ID                                       : 5
Format                                   : ASS
Codec ID                                 : S_TEXT/ASS
Codec ID/Info                            : Advanced Sub Station Alpha
Duration                                 : 24 min 9 s
Bit rate                                 : 165 b/s
Count of elements                        : 418
Compression mode                         : Lossless
Stream size                              : 29.3 KiB (0%)
Title                                    : French
Language                                 : French
Default                                  : No
Forced                                   : No

Text #4
ID                                       : 6
Format                                   : ASS
Codec ID                                 : S_TEXT/ASS
Codec ID/Info                            : Advanced Sub Station Alpha
Duration                                 : 24 min 9 s
Bit rate                                 : 174 b/s
Count of elements                        : 487
Compression mode                         : Lossless
Stream size                              : 30.8 KiB (0%)
Title                                    : German
Language                                 : German
Default                                  : No
Forced                                   : No

Text #5
ID                                       : 7
Format                                   : ASS
Codec ID                                 : S_TEXT/ASS
Codec ID/Info                            : Advanced Sub Station Alpha
Duration                                 : 24 min 9 s
Bit rate                                 : 176 b/s
Count of elements                        : 425
Compression mode                         : Lossless
Stream size                              : 31.3 KiB (0%)
Title                                    : Italian
Language                                 : Italian
Default                                  : No
Forced                                   : No

Text #6
ID                                       : 8
Format                                   : ASS
Codec ID                                 : S_TEXT/ASS
Codec ID/Info                            : Advanced Sub Station Alpha
Duration                                 : 24 min 9 s
Bit rate                                 : 171 b/s
Count of elements                        : 426
Compression mode                         : Lossless
Stream size                              : 30.4 KiB (0%)
Title                                    : Portuguese
Language                                 : Portuguese
Default                                  : No
Forced                                   : No

Text #7
ID                                       : 9
Format                                   : ASS
Codec ID                                 : S_TEXT/ASS
Codec ID/Info                            : Advanced Sub Station Alpha
Duration                                 : 24 min 9 s
Bit rate                                 : 207 b/s
Count of elements                        : 424
Compression mode                         : Lossless
Stream size                              : 36.7 KiB (0%)
Title                                    : Russian
Language                                 : Russian
Default                                  : No
Forced                                   : No

Menu
00:00:00.000                             : en:Chapitre 08
00:00:56.056                             : en:Chapitre 09
00:02:26.020                             : en:Chapitre 10
00:12:15.025                             : en:Chapitre 11
00:22:25.052                             : en:Chapitre 12
00:23:55.016                             : en:Chapitre 13

Other Files in this Torrent
Mob Psycho 100 - S01/[zza] Mob Psycho 100 - S01 - 04 [1080p.x265].mkv
beta
Anime DDL+NZB mirror
Current Time: 23/04/2024 08:11



About/FAQs

Discord