Mob Psycho 100 - S01/[zza] Mob Psycho 100 - S01 - 09 [1080p.x265].mkv


File Size301.3 MB (315,978,889 bytes)
DownloadAnonFiles | ClickNUpload | DropAPK | Free | MultiUp
  • BdUpload
  • DownAce
  • Fichier
  • FileCloud
  • Filerio
  • FilesCdn
  • IndiShare
  • Kbagi
  • Turbobit
  • UpToBox
  • Uppit
| SolidFiles | ZippyShare
Sendspace: Part1, Part2
HashesCRC32: AC26DE18, MD5: CDFB34C3D390AF44846EDF0FFFC3E1E2, SHA1: C0E9103F4A2857CDA74A8EB2C94A209CF2CBD308, SHA256: 143A7B04BF178E44CA6AEA6E8596D30B599061B16367D37E2E0AFB113A125581, ED2K: 476C862BC23CDCAB6D319141AA7F5533
Screenshots
screenshotscreenshotscreenshotscreenshotscreenshot
SubtitlesAll Attachments | English [eng, ASS], Arabic [ara, ASS], French [fre, ASS], German [ger, ASS], Italian [ita, ASS], Portuguese [por, ASS], Russian [rus, ASS]
Additional Info
General
Unique ID                                : 166406387861984241865019265576853991497 (0x7D30B45C36BCD5A0B3008BD5B64A7049)
Complete name                            : [zza] Mob Psycho 100 - S01 - 09 [1080p.x265].mkv
Format                                   : Matroska
Format version                           : Version 4
File size                                : 301 MiB
Duration                                 : 24 min 12 s
Overall bit rate                         : 1 741 kb/s
Movie name                               : [zza] Mob Psycho 100 - S01 - 09 - Claw ~7th Division~
Encoded date                             : UTC 2020-07-31 21:44:43
Writing application                      : mkvmerge v46.0.0 ('No Deeper Escape') 64-bit
Writing library                          : libebml v1.3.10 + libmatroska v1.5.2
Cover                                    : Yes
Attachments                              : cover.jpg

Video
ID                                       : 1
Format                                   : HEVC
Format/Info                              : High Efficiency Video Coding
Format profile                           : Main 10@L5@Main
Codec ID                                 : V_MPEGH/ISO/HEVC
Duration                                 : 24 min 12 s
Bit rate                                 : 1 540 kb/s
Width                                    : 1 920 pixels
Height                                   : 1 080 pixels
Display aspect ratio                     : 16:9
Frame rate mode                          : Variable
Frame rate                               : 23.976 FPS
Color space                              : YUV
Chroma subsampling                       : 4:2:0
Bit depth                                : 10 bits
Bits/(Pixel*Frame)                       : 0.031
Stream size                              : 267 MiB (88%)
Language                                 : zza
Default                                  : Yes
Forced                                   : No
Color range                              : Limited

Audio
ID                                       : 2
Format                                   : AAC LC
Format/Info                              : Advanced Audio Codec Low Complexity
Codec ID                                 : A_AAC-2
Duration                                 : 24 min 12 s
Bit rate                                 : 192 kb/s
Channel(s)                               : 2 channels
Channel layout                           : L R
Sampling rate                            : 48.0 kHz
Frame rate                               : 46.875 FPS (1024 SPF)
Compression mode                         : Lossy
Stream size                              : 33.3 MiB (11%)
Language                                 : Japanese
Default                                  : Yes
Forced                                   : No

Text #1
ID                                       : 3
Format                                   : ASS
Codec ID                                 : S_TEXT/ASS
Codec ID/Info                            : Advanced Sub Station Alpha
Duration                                 : 24 min 8 s
Bit rate                                 : 158 b/s
Count of elements                        : 427
Compression mode                         : Lossless
Stream size                              : 28.0 KiB (0%)
Title                                    : English
Language                                 : English
Default                                  : Yes
Forced                                   : No

Text #2
ID                                       : 4
Format                                   : ASS
Codec ID                                 : S_TEXT/ASS
Codec ID/Info                            : Advanced Sub Station Alpha
Duration                                 : 24 min 8 s
Bit rate                                 : 191 b/s
Count of elements                        : 406
Compression mode                         : Lossless
Stream size                              : 33.9 KiB (0%)
Title                                    : Arabic
Language                                 : Arabic
Default                                  : No
Forced                                   : No

Text #3
ID                                       : 5
Format                                   : ASS
Codec ID                                 : S_TEXT/ASS
Codec ID/Info                            : Advanced Sub Station Alpha
Duration                                 : 24 min 8 s
Bit rate                                 : 157 b/s
Count of elements                        : 393
Compression mode                         : Lossless
Stream size                              : 27.9 KiB (0%)
Title                                    : French
Language                                 : French
Default                                  : No
Forced                                   : No

Text #4
ID                                       : 6
Format                                   : ASS
Codec ID                                 : S_TEXT/ASS
Codec ID/Info                            : Advanced Sub Station Alpha
Duration                                 : 24 min 8 s
Bit rate                                 : 163 b/s
Count of elements                        : 467
Compression mode                         : Lossless
Stream size                              : 29.0 KiB (0%)
Title                                    : German
Language                                 : German
Default                                  : No
Forced                                   : No

Text #5
ID                                       : 7
Format                                   : ASS
Codec ID                                 : S_TEXT/ASS
Codec ID/Info                            : Advanced Sub Station Alpha
Duration                                 : 24 min 8 s
Bit rate                                 : 167 b/s
Count of elements                        : 413
Compression mode                         : Lossless
Stream size                              : 29.6 KiB (0%)
Title                                    : Italian
Language                                 : Italian
Default                                  : No
Forced                                   : No

Text #6
ID                                       : 8
Format                                   : ASS
Codec ID                                 : S_TEXT/ASS
Codec ID/Info                            : Advanced Sub Station Alpha
Duration                                 : 24 min 8 s
Bit rate                                 : 158 b/s
Count of elements                        : 409
Compression mode                         : Lossless
Stream size                              : 28.1 KiB (0%)
Title                                    : Portuguese
Language                                 : Portuguese
Default                                  : No
Forced                                   : No

Text #7
ID                                       : 9
Format                                   : ASS
Codec ID                                 : S_TEXT/ASS
Codec ID/Info                            : Advanced Sub Station Alpha
Duration                                 : 24 min 8 s
Bit rate                                 : 196 b/s
Count of elements                        : 414
Compression mode                         : Lossless
Stream size                              : 34.7 KiB (0%)
Title                                    : Russian
Language                                 : Russian
Default                                  : No
Forced                                   : No

Menu
00:00:00.000                             : en:Chapitre 01
00:01:02.979                             : en:Chapitre 02
00:02:33.027                             : en:Chapitre 03
00:11:55.005                             : en:Chapitre 04
00:22:25.052                             : en:Chapitre 05
00:23:55.016                             : en:Chapitre 06

Other Files in this Torrent
Mob Psycho 100 - S01/[zza] Mob Psycho 100 - S01 - 09 [1080p.x265].mkv
beta
Anime DDL+NZB mirror
Current Time: 15/07/2024 11:32



About/FAQs

Discord