Mob Psycho 100 - S01/[zza] Mob Psycho 100 - S01 - 02 [1080p.x265].mkv


File Size379.8 MB (398,217,296 bytes)
DownloadAnonFiles | ClickNUpload | DropAPK | Free | MultiUp
  • BdUpload
  • DownAce
  • Fichier
  • FileCloud
  • Filerio
  • FilesCdn
  • IndiShare
  • Kbagi
  • Turbobit
  • UpToBox
  • Uppit
| SolidFiles | ZippyShare
Sendspace: Part1, Part2
HashesCRC32: 4398ED10, MD5: 0A25A607DA9B55C68DE17FC5F6A29EBB, SHA1: 4362AB66FCB74515479E8B1A2B589A05A4EA1DA9, SHA256: BC0199EBC961C4FAB1FD3FD8B4C58DBC0DCA2920905495FAD0A68E9C7901E881, ED2K: 7DE14BDAD3F915FF21139EC553F3AB22
Screenshots
screenshotscreenshotscreenshotscreenshotscreenshot
SubtitlesAll Attachments | English [eng, ASS], Arabic [ara, ASS], French [fre, ASS], German [ger, ASS], Italian [ita, ASS], Portuguese [por, ASS], Russian [rus, ASS]
Additional Info
General
Unique ID                                : 55492740766600282421494973445935064914 (0x29BF835B6DEACACBBAFE411C0DE9E752)
Complete name                            : [zza] Mob Psycho 100 - S01 - 02 [1080p.x265].mkv
Format                                   : Matroska
Format version                           : Version 4
File size                                : 380 MiB
Duration                                 : 24 min 11 s
Overall bit rate                         : 2 195 kb/s
Movie name                               : [zza] Mob Psycho 100 - S01 - 02 - Doubts about Youth ~The Telepathy Club Appears~
Encoded date                             : UTC 2020-07-31 21:39:31
Writing application                      : mkvmerge v46.0.0 ('No Deeper Escape') 64-bit
Writing library                          : libebml v1.3.10 + libmatroska v1.5.2
Cover                                    : Yes
Attachments                              : cover.jpg

Video
ID                                       : 1
Format                                   : HEVC
Format/Info                              : High Efficiency Video Coding
Format profile                           : Main 10@L5@Main
Codec ID                                 : V_MPEGH/ISO/HEVC
Duration                                 : 24 min 11 s
Bit rate                                 : 1 994 kb/s
Width                                    : 1 920 pixels
Height                                   : 1 080 pixels
Display aspect ratio                     : 16:9
Frame rate mode                          : Variable
Frame rate                               : 23.976 FPS
Color space                              : YUV
Chroma subsampling                       : 4:2:0
Bit depth                                : 10 bits
Bits/(Pixel*Frame)                       : 0.040
Stream size                              : 345 MiB (91%)
Language                                 : zza
Default                                  : Yes
Forced                                   : No
Color range                              : Limited

Audio
ID                                       : 2
Format                                   : AAC LC
Format/Info                              : Advanced Audio Codec Low Complexity
Codec ID                                 : A_AAC-2
Duration                                 : 24 min 11 s
Bit rate                                 : 192 kb/s
Channel(s)                               : 2 channels
Channel layout                           : L R
Sampling rate                            : 48.0 kHz
Frame rate                               : 46.875 FPS (1024 SPF)
Compression mode                         : Lossy
Stream size                              : 33.3 MiB (9%)
Language                                 : Japanese
Default                                  : Yes
Forced                                   : No

Text #1
ID                                       : 3
Format                                   : ASS
Codec ID                                 : S_TEXT/ASS
Codec ID/Info                            : Advanced Sub Station Alpha
Duration                                 : 24 min 8 s
Bit rate                                 : 184 b/s
Count of elements                        : 502
Compression mode                         : Lossless
Stream size                              : 32.6 KiB (0%)
Title                                    : English
Language                                 : English
Default                                  : Yes
Forced                                   : No

Text #2
ID                                       : 4
Format                                   : ASS
Codec ID                                 : S_TEXT/ASS
Codec ID/Info                            : Advanced Sub Station Alpha
Duration                                 : 24 min 8 s
Bit rate                                 : 231 b/s
Count of elements                        : 484
Compression mode                         : Lossless
Stream size                              : 40.9 KiB (0%)
Title                                    : Arabic
Language                                 : Arabic
Default                                  : No
Forced                                   : No

Text #3
ID                                       : 5
Format                                   : ASS
Codec ID                                 : S_TEXT/ASS
Codec ID/Info                            : Advanced Sub Station Alpha
Duration                                 : 24 min 8 s
Bit rate                                 : 176 b/s
Count of elements                        : 436
Compression mode                         : Lossless
Stream size                              : 31.2 KiB (0%)
Title                                    : French
Language                                 : French
Default                                  : No
Forced                                   : No

Text #4
ID                                       : 6
Format                                   : ASS
Codec ID                                 : S_TEXT/ASS
Codec ID/Info                            : Advanced Sub Station Alpha
Duration                                 : 24 min 8 s
Bit rate                                 : 186 b/s
Count of elements                        : 483
Compression mode                         : Lossless
Stream size                              : 32.9 KiB (0%)
Title                                    : German
Language                                 : German
Default                                  : No
Forced                                   : No

Text #5
ID                                       : 7
Format                                   : ASS
Codec ID                                 : S_TEXT/ASS
Codec ID/Info                            : Advanced Sub Station Alpha
Duration                                 : 24 min 8 s
Bit rate                                 : 195 b/s
Count of elements                        : 488
Compression mode                         : Lossless
Stream size                              : 34.6 KiB (0%)
Title                                    : Italian
Language                                 : Italian
Default                                  : No
Forced                                   : No

Text #6
ID                                       : 8
Format                                   : ASS
Codec ID                                 : S_TEXT/ASS
Codec ID/Info                            : Advanced Sub Station Alpha
Duration                                 : 24 min 8 s
Bit rate                                 : 189 b/s
Count of elements                        : 484
Compression mode                         : Lossless
Stream size                              : 33.6 KiB (0%)
Title                                    : Portuguese
Language                                 : Portuguese
Default                                  : No
Forced                                   : No

Text #7
ID                                       : 9
Format                                   : ASS
Codec ID                                 : S_TEXT/ASS
Codec ID/Info                            : Advanced Sub Station Alpha
Duration                                 : 24 min 8 s
Bit rate                                 : 218 b/s
Count of elements                        : 467
Compression mode                         : Lossless
Stream size                              : 38.6 KiB (0%)
Title                                    : Russian
Language                                 : Russian
Default                                  : No
Forced                                   : No

Menu
00:00:00.000                             : en:Chapitre 08
00:01:00.977                             : en:Chapitre 09
00:02:31.025                             : en:Chapitre 10
00:13:19.006                             : en:Chapitre 11
00:22:10.996                             : en:Chapitre 12
00:23:41.002                             : en:Chapitre 13
00:23:54.975                             : en:Chapitre 14

Other Files in this Torrent
Mob Psycho 100 - S01/[zza] Mob Psycho 100 - S01 - 02 [1080p.x265].mkv
beta
Anime DDL+NZB mirror
Current Time: 23/04/2024 07:29



About/FAQs

Discord