Mob Psycho 100 - S01/SPED/[zza] Mob Psycho 100 - S01 - ED [1080p.x265].mkv


File Size36.08 MB (37,832,547 bytes)
DownloadAnonFiles | ClickNUpload | DropAPK | Free | MultiUp
  • BdUpload
  • DownAce
  • Fichier
  • FileCloud
  • Filerio
  • FilesCdn
  • IndiShare
  • Kbagi
  • Turbobit
  • UpToBox
  • Uppit
| Sendspace | SolidFiles | ZippyShare
HashesCRC32: 304D121B, MD5: 32AFC7C2CAF9FA6F18B0F80A1D38C9F7, SHA1: 8983FE3C48B16C1BF3A9E0E975F2611DD7E2F23F, SHA256: EAF682262E4126992A9311A38CBAAD8882839D095CE795E741DE89774FDEBAF3, ED2K: A913C7FBC168B0DB8985D5C20989B3A6
Screenshots
screenshotscreenshot
Additional Info
General
Unique ID                                : 40574345680519329604418302092849907450 (0x1E8655B0FF1E4586FF3331D977AF06FA)
Complete name                            : [zza] Mob Psycho 100 - S01 - ED [1080p.x265].mkv
Format                                   : Matroska
Format version                           : Version 4
File size                                : 36.1 MiB
Duration                                 : 1 min 31 s
Overall bit rate                         : 3 322 kb/s
Encoded date                             : UTC 2020-08-01 09:39:26
Writing application                      : mkvmerge v46.0.0 ('No Deeper Escape') 64-bit
Writing library                          : libebml v1.3.10 + libmatroska v1.5.2

Video
ID                                       : 1
Format                                   : HEVC
Format/Info                              : High Efficiency Video Coding
Format profile                           : Main 10@L5@Main
Codec ID                                 : V_MPEGH/ISO/HEVC
Duration                                 : 1 min 31 s
Bit rate                                 : 3 131 kb/s
Width                                    : 1 920 pixels
Height                                   : 1 080 pixels
Display aspect ratio                     : 16:9
Frame rate mode                          : Variable
Frame rate                               : 23.976 (23976/1000) FPS
Original frame rate                      : 23.976 (24000/1001) FPS
Color space                              : YUV
Chroma subsampling                       : 4:2:0
Bit depth                                : 10 bits
Bits/(Pixel*Frame)                       : 0.063
Stream size                              : 34.0 MiB (94%)
Language                                 : zza
Default                                  : Yes
Forced                                   : No

Audio
ID                                       : 2
Format                                   : AAC LC
Format/Info                              : Advanced Audio Codec Low Complexity
Codec ID                                 : A_AAC-2
Duration                                 : 1 min 31 s
Bit rate                                 : 192 kb/s
Channel(s)                               : 2 channels
Channel layout                           : L R
Sampling rate                            : 48.0 kHz
Frame rate                               : 46.875 FPS (1024 SPF)
Compression mode                         : Lossy
Stream size                              : 2.05 MiB (6%)
Language                                 : Japanese
Default                                  : Yes
Forced                                   : No

Other Files in this Torrent
Mob Psycho 100 - S01/SPED/[zza] Mob Psycho 100 - S01 - ED [1080p.x265].mkv
beta
Anime DDL+NZB mirror
Current Time: 23/04/2024 08:55



About/FAQs

Discord