Mob Psycho 100 - S02/[zza] Mob Psycho 100 - S02 - 01 [1080p.x265].mkv


File Size330.9 MB (347,010,876 bytes)
DownloadAnonFiles | ClickNUpload | DropAPK | Free | MultiUp
  • BdUpload
  • DownAce
  • Fichier
  • FileCloud
  • Filerio
  • FilesCdn
  • IndiShare
  • Kbagi
  • Turbobit
  • UpToBox
  • Uppit
| SolidFiles | ZippyShare
Sendspace: Part1, Part2
HashesCRC32: A5B63A32, MD5: 01CE83FB8A2D048AD8109057E1DF07EC, SHA1: D32C91856BEE4458BAEA750D915517ADF29F053B, SHA256: 80C79BD79B984759E6A0D61A14899CB9E7E15F3DCDE393755FB86EEDEEC6D16E, ED2K: 31C05BE030653B5D1AFB611744443802
Screenshots
screenshotscreenshotscreenshotscreenshotscreenshot
SubtitlesAll Attachments | English [eng, ASS], Arabic [ara, ASS], French [fre, ASS], German [ger, ASS], Italian [ita, ASS], Portuguese [por, ASS], Russian [rus, ASS], Spanish1 [spa, ASS], Spanish2 [spa, ASS]
Additional Info
General
Unique ID                                : 324189438081332124757301429172294132749 (0xF3E49D59682A24D61B0A3E2FB7BC240D)
Complete name                            : [zza] Mob Psycho 100 - S02 - 01 [1080p.x265].mkv
Format                                   : Matroska
Format version                           : Version 4
File size                                : 331 MiB
Duration                                 : 24 min 12 s
Overall bit rate                         : 1 912 kb/s
Movie name                               : [zza] Mob Psycho 100 - S02 - 01 - Ripped Apart ~Someone Is Watching~
Encoded date                             : UTC 2020-07-31 22:42:23
Writing application                      : mkvmerge v46.0.0 ('No Deeper Escape') 64-bit
Writing library                          : libebml v1.3.10 + libmatroska v1.5.2
Cover                                    : Yes
Attachments                              : cover.jpg

Video
ID                                       : 1
Format                                   : HEVC
Format/Info                              : High Efficiency Video Coding
Format profile                           : Main 10@L5@Main
Codec ID                                 : V_MPEGH/ISO/HEVC
Duration                                 : 24 min 12 s
Bit rate                                 : 1 714 kb/s
Width                                    : 1 920 pixels
Height                                   : 1 080 pixels
Display aspect ratio                     : 16:9
Frame rate mode                          : Variable
Frame rate                               : 23.976 FPS
Color space                              : YUV
Chroma subsampling                       : 4:2:0
Bit depth                                : 10 bits
Bits/(Pixel*Frame)                       : 0.034
Stream size                              : 297 MiB (90%)
Language                                 : zza
Default                                  : Yes
Forced                                   : No
Color range                              : Limited

Audio
ID                                       : 2
Format                                   : AAC LC
Format/Info                              : Advanced Audio Codec Low Complexity
Codec ID                                 : A_AAC-2
Duration                                 : 24 min 12 s
Bit rate                                 : 192 kb/s
Channel(s)                               : 2 channels
Channel layout                           : L R
Sampling rate                            : 48.0 kHz
Frame rate                               : 46.875 FPS (1024 SPF)
Compression mode                         : Lossy
Stream size                              : 33.1 MiB (10%)
Language                                 : Japanese
Default                                  : Yes
Forced                                   : No

Text #1
ID                                       : 3
Format                                   : ASS
Codec ID                                 : S_TEXT/ASS
Codec ID/Info                            : Advanced Sub Station Alpha
Duration                                 : 24 min 9 s
Bit rate                                 : 180 b/s
Count of elements                        : 432
Compression mode                         : Lossless
Stream size                              : 32.0 KiB (0%)
Title                                    : English
Language                                 : English
Default                                  : Yes
Forced                                   : No

Text #2
ID                                       : 4
Format                                   : ASS
Codec ID                                 : S_TEXT/ASS
Codec ID/Info                            : Advanced Sub Station Alpha
Duration                                 : 24 min 9 s
Bit rate                                 : 222 b/s
Count of elements                        : 431
Compression mode                         : Lossless
Stream size                              : 39.3 KiB (0%)
Title                                    : Arabic
Language                                 : Arabic
Default                                  : No
Forced                                   : No

Text #3
ID                                       : 5
Format                                   : ASS
Codec ID                                 : S_TEXT/ASS
Codec ID/Info                            : Advanced Sub Station Alpha
Duration                                 : 24 min 7 s
Bit rate                                 : 154 b/s
Count of elements                        : 367
Compression mode                         : Lossless
Stream size                              : 27.2 KiB (0%)
Title                                    : French
Language                                 : French
Default                                  : No
Forced                                   : No

Text #4
ID                                       : 6
Format                                   : ASS
Codec ID                                 : S_TEXT/ASS
Codec ID/Info                            : Advanced Sub Station Alpha
Duration                                 : 24 min 7 s
Bit rate                                 : 193 b/s
Count of elements                        : 415
Compression mode                         : Lossless
Stream size                              : 34.1 KiB (0%)
Title                                    : German
Language                                 : German
Default                                  : No
Forced                                   : No

Text #5
ID                                       : 7
Format                                   : ASS
Codec ID                                 : S_TEXT/ASS
Codec ID/Info                            : Advanced Sub Station Alpha
Duration                                 : 24 min 9 s
Bit rate                                 : 215 b/s
Count of elements                        : 457
Compression mode                         : Lossless
Stream size                              : 38.2 KiB (0%)
Title                                    : Italian
Language                                 : Italian
Default                                  : No
Forced                                   : No

Text #6
ID                                       : 8
Format                                   : ASS
Codec ID                                 : S_TEXT/ASS
Codec ID/Info                            : Advanced Sub Station Alpha
Duration                                 : 24 min 9 s
Bit rate                                 : 179 b/s
Count of elements                        : 432
Compression mode                         : Lossless
Stream size                              : 31.8 KiB (0%)
Title                                    : Portuguese
Language                                 : Portuguese
Default                                  : No
Forced                                   : No

Text #7
ID                                       : 9
Format                                   : ASS
Codec ID                                 : S_TEXT/ASS
Codec ID/Info                            : Advanced Sub Station Alpha
Duration                                 : 24 min 7 s
Bit rate                                 : 215 b/s
Count of elements                        : 460
Compression mode                         : Lossless
Stream size                              : 38.1 KiB (0%)
Title                                    : Russian
Language                                 : Russian
Default                                  : No
Forced                                   : No

Text #8
ID                                       : 10
Format                                   : ASS
Codec ID                                 : S_TEXT/ASS
Codec ID/Info                            : Advanced Sub Station Alpha
Duration                                 : 24 min 8 s
Bit rate                                 : 135 b/s
Count of elements                        : 382
Compression mode                         : Lossless
Stream size                              : 23.9 KiB (0%)
Title                                    : Spanish1
Language                                 : Spanish
Default                                  : No
Forced                                   : No

Text #9
ID                                       : 11
Format                                   : ASS
Codec ID                                 : S_TEXT/ASS
Codec ID/Info                            : Advanced Sub Station Alpha
Duration                                 : 24 min 8 s
Bit rate                                 : 134 b/s
Count of elements                        : 381
Compression mode                         : Lossless
Stream size                              : 23.8 KiB (0%)
Title                                    : Spanish2
Language                                 : Spanish
Default                                  : No
Forced                                   : No

Menu
00:00:00.000                             : en:Chapitre 01
00:06:34.977                             : en:Chapitre 02
00:08:04.942                             : en:Chapitre 03
00:14:19.233                             : en:Chapitre 04
00:22:21.798                             : en:Chapitre 05
00:23:55.225                             : en:Chapitre 06

Other Files in this Torrent
Mob Psycho 100 - S02/[zza] Mob Psycho 100 - S02 - 01 [1080p.x265].mkv
beta
Anime DDL+NZB mirror
Current Time: 22/04/2024 05:27



About/FAQs

Discord