Mob Psycho 100 - S01/[zza] Mob Psycho 100 - S01 - 12 [1080p.x265].mkv


File Size364.6 MB (382,334,516 bytes)
DownloadAnonFiles | ClickNUpload | DropAPK | Free | MultiUp
  • BdUpload
  • DownAce
  • Fichier
  • FileCloud
  • Filerio
  • FilesCdn
  • IndiShare
  • Kbagi
  • Turbobit
  • UpToBox
  • Uppit
| SolidFiles | ZippyShare
Sendspace: Part1, Part2
HashesCRC32: BF64143B, MD5: EA8F1312A5BDFB6F9226B3975BC9F2CE, SHA1: 27CF04F603201ACDFE967C6282554C7F25C89B19, SHA256: B95463EAE7BF023C124024AFCA327BE45AD6D7272588D5416110036A4B96AD7E, ED2K: C49B311A0C1AD3E406EE29E6DD2A1576
Screenshots
screenshotscreenshotscreenshotscreenshotscreenshot
SubtitlesAll Attachments | English [eng, ASS], Arabic [ara, ASS], French [fre, ASS], German [ger, ASS], Italian [ita, ASS], Portuguese [por, ASS], Russian [rus, ASS]
Additional Info
General
Unique ID                                : 80185627018084019225548866910668286607 (0x3C5330A50B0F584F3059E757A01D6A8F)
Complete name                            : [zza] Mob Psycho 100 - S01 - 12 [1080p.x265].mkv
Format                                   : Matroska
Format version                           : Version 4
File size                                : 365 MiB
Duration                                 : 24 min 11 s
Overall bit rate                         : 2 108 kb/s
Movie name                               : [zza] Mob Psycho 100 - S01 - 12 - Mob and Reigen ~A Giant Tsuchinoko Appears~
Encoded date                             : UTC 2020-07-31 21:48:03
Writing application                      : mkvmerge v46.0.0 ('No Deeper Escape') 64-bit
Writing library                          : libebml v1.3.10 + libmatroska v1.5.2
Cover                                    : Yes
Attachments                              : cover.jpg

Video
ID                                       : 1
Format                                   : HEVC
Format/Info                              : High Efficiency Video Coding
Format profile                           : Main 10@L5@Main
Codec ID                                 : V_MPEGH/ISO/HEVC
Duration                                 : 24 min 11 s
Bit rate                                 : 1 907 kb/s
Width                                    : 1 920 pixels
Height                                   : 1 080 pixels
Display aspect ratio                     : 16:9
Frame rate mode                          : Variable
Frame rate                               : 23.976 FPS
Color space                              : YUV
Chroma subsampling                       : 4:2:0
Bit depth                                : 10 bits
Bits/(Pixel*Frame)                       : 0.038
Stream size                              : 330 MiB (90%)
Language                                 : zza
Default                                  : Yes
Forced                                   : No
Color range                              : Limited

Audio
ID                                       : 2
Format                                   : AAC LC
Format/Info                              : Advanced Audio Codec Low Complexity
Codec ID                                 : A_AAC-2
Duration                                 : 24 min 11 s
Bit rate                                 : 192 kb/s
Channel(s)                               : 2 channels
Channel layout                           : L R
Sampling rate                            : 48.0 kHz
Frame rate                               : 46.875 FPS (1024 SPF)
Compression mode                         : Lossy
Stream size                              : 33.3 MiB (9%)
Language                                 : Japanese
Default                                  : Yes
Forced                                   : No

Text #1
ID                                       : 3
Format                                   : ASS
Codec ID                                 : S_TEXT/ASS
Codec ID/Info                            : Advanced Sub Station Alpha
Duration                                 : 24 min 9 s
Bit rate                                 : 168 b/s
Count of elements                        : 460
Compression mode                         : Lossless
Stream size                              : 29.7 KiB (0%)
Title                                    : English
Language                                 : English
Default                                  : Yes
Forced                                   : No

Text #2
ID                                       : 4
Format                                   : ASS
Codec ID                                 : S_TEXT/ASS
Codec ID/Info                            : Advanced Sub Station Alpha
Duration                                 : 24 min 9 s
Bit rate                                 : 205 b/s
Count of elements                        : 452
Compression mode                         : Lossless
Stream size                              : 36.4 KiB (0%)
Title                                    : Arabic
Language                                 : Arabic
Default                                  : No
Forced                                   : No

Text #3
ID                                       : 5
Format                                   : ASS
Codec ID                                 : S_TEXT/ASS
Codec ID/Info                            : Advanced Sub Station Alpha
Duration                                 : 24 min 5 s
Bit rate                                 : 164 b/s
Count of elements                        : 396
Compression mode                         : Lossless
Stream size                              : 29.1 KiB (0%)
Title                                    : French
Language                                 : French
Default                                  : No
Forced                                   : No

Text #4
ID                                       : 6
Format                                   : ASS
Codec ID                                 : S_TEXT/ASS
Codec ID/Info                            : Advanced Sub Station Alpha
Duration                                 : 24 min 4 s
Bit rate                                 : 172 b/s
Count of elements                        : 500
Compression mode                         : Lossless
Stream size                              : 30.4 KiB (0%)
Title                                    : German
Language                                 : German
Default                                  : No
Forced                                   : No

Text #5
ID                                       : 7
Format                                   : ASS
Codec ID                                 : S_TEXT/ASS
Codec ID/Info                            : Advanced Sub Station Alpha
Duration                                 : 24 min 9 s
Bit rate                                 : 179 b/s
Count of elements                        : 456
Compression mode                         : Lossless
Stream size                              : 31.8 KiB (0%)
Title                                    : Italian
Language                                 : Italian
Default                                  : No
Forced                                   : No

Text #6
ID                                       : 8
Format                                   : ASS
Codec ID                                 : S_TEXT/ASS
Codec ID/Info                            : Advanced Sub Station Alpha
Duration                                 : 24 min 9 s
Bit rate                                 : 170 b/s
Count of elements                        : 457
Compression mode                         : Lossless
Stream size                              : 30.1 KiB (0%)
Title                                    : Portuguese
Language                                 : Portuguese
Default                                  : No
Forced                                   : No

Text #7
ID                                       : 9
Format                                   : ASS
Codec ID                                 : S_TEXT/ASS
Codec ID/Info                            : Advanced Sub Station Alpha
Duration                                 : 24 min 9 s
Bit rate                                 : 205 b/s
Count of elements                        : 454
Compression mode                         : Lossless
Stream size                              : 36.4 KiB (0%)
Title                                    : Russian
Language                                 : Russian
Default                                  : No
Forced                                   : No

Menu
00:00:00.000                             : en:Chapitre 07
00:00:45.045                             : en:Chapitre 08
00:02:15.009                             : en:Chapitre 09
00:14:52.975                             : en:Chapitre 10
00:19:13.193                             : en:Chapitre 11
00:21:42.050                             : en:Chapitre 12

Other Files in this Torrent
Mob Psycho 100 - S01/[zza] Mob Psycho 100 - S01 - 12 [1080p.x265].mkv
beta
Anime DDL+NZB mirror
Current Time: 22/04/2024 06:28



About/FAQs

Discord