3. Tokyo Ghoul Jack & Pinto OVA/[NoobSubs] Tokyo Ghoul Pinto OVA (720p Blu-ray 8bit AAC).mp4


File Size256.5 MB (268,971,303 bytes)
DownloadClickNUpload | DiskoKosmiko | Go4Up | Jheberg | MultiUp | OpenLoad | Sendspace | SolidFiles | ZippyShare
HashesCRC32: A219B336, MD5: A47ECB358F7C0C0737C1C2DE898FA06E, SHA1: D3E5CC9A3AC25F99CB5284E1981F99919052B0B7, SHA256: D2F54389506A30C33D12206E6008EA584E0978E869DCD60BC3D98800F3E64A05, ED2K: E6A1E9313823A23441A9B8DFFD3515C8
Screenshots
screenshotscreenshotscreenshotscreenshotscreenshot
Additional Info
General
Complete name                            : [NoobSubs] Tokyo Ghoul Pinto OVA (720p Blu-ray 8bit AAC).mp4
Format                                   : MPEG-4
Format profile                           : Base Media
Codec ID                                 : isom (isom/avc1)
File size                                : 257 MiB
Duration                                 : 24 min 25 s
Overall bit rate mode                    : Variable
Overall bit rate                         : 1 468 kb/s
Movie name                               : [NoobSubs] Tokyo Ghoul Pinto OVA (720p Blu-ray 8bit AAC)
Album                                    : Tokyo Ghoul Pinto OVA
Track name/Position                      : 2
Track name/Total                         : 2
Performer                                : Subs: [BlurayDesuYo]
Encoded date                             : UTC 2016-07-14 19:21:41
Tagged date                              : UTC 2016-07-14 22:58:17
replaygain_track_gain                    : +1.18 dB
replaygain_track_minmax                  : 90,183
replaygain_track_peak                    : 1.180000
replaygain_undo                          : -1,-1

Video
ID                                       : 1
Format                                   : AVC
Format/Info                              : Advanced Video Codec
Format profile                           : High@L4
Format settings, CABAC                   : Yes
Format settings, ReFrames                : 6 frames
Codec ID                                 : avc1
Codec ID/Info                            : Advanced Video Coding
Duration                                 : 24 min 25 s
Bit rate                                 : 1 236 kb/s
Maximum bit rate                         : 7 086 kb/s
Width                                    : 1 280 pixels
Height                                   : 720 pixels
Display aspect ratio                     : 16:9
Frame rate mode                          : Constant
Frame rate                               : 23.976 (24000/1001) FPS
Color space                              : YUV
Chroma subsampling                       : 4:2:0
Bit depth                                : 8 bits
Scan type                                : Progressive
Bits/(Pixel*Frame)                       : 0.056
Stream size                              : 216 MiB (84%)
Title                                    : 264@GPAC0.6.2-DEV-rev142-g9a9a995-master
Writing library                          : x264 core 148 r2665 a01e339
Encoding settings                        : cabac=1 / ref=6 / deblock=1:1:1 / analyse=0x3:0x133 / me=umh / subme=10 / psy=1 / psy_rd=0.40:0.00 / mixed_ref=1 / me_range=24 / chroma_me=1 / trellis=2 / 8x8dct=1 / cqm=0 / deadzone=21,11 / fast_pskip=1 / chroma_qp_offset=-2 / threads=12 / lookahead_threads=2 / sliced_threads=0 / nr=0 / decimate=1 / interlaced=0 / bluray_compat=0 / constrained_intra=0 / bframes=7 / b_pyramid=2 / b_adapt=2 / b_bias=0 / direct=3 / weightb=1 / open_gop=0 / weightp=2 / keyint=250 / keyint_min=23 / scenecut=40 / intra_refresh=0 / rc_lookahead=60 / rc=crf / mbtree=1 / crf=17.3 / qcomp=0.60 / qpmin=0 / qpmax=69 / qpstep=4 / ip_ratio=1.40 / aq=1:1.40
Encoded date                             : UTC 2016-07-14 19:21:41
Tagged date                              : UTC 2016-07-14 19:21:44

Audio
ID                                       : 2
Format                                   : AAC
Format/Info                              : Advanced Audio Codec
Format profile                           : LC
Codec ID                                 : 40
Duration                                 : 24 min 25 s
Bit rate mode                            : Variable
Bit rate                                 : 229 kb/s
Maximum bit rate                         : 300 kb/s
Channel(s)                               : 2 channels
Channel positions                        : Front: L R
Sampling rate                            : 48.0 kHz
Frame rate                               : 46.875 FPS (1024 spf)
Compression mode                         : Lossy
Stream size                              : 40.0 MiB (16%)
Encoded date                             : UTC 2016-07-14 19:21:03
Tagged date                              : UTC 2016-07-14 19:21:44

Other Files in this Torrent
3. Tokyo Ghoul Jack & Pinto OVA/[NoobSubs] Tokyo Ghoul Pinto OVA (720p Blu-ray 8bit AAC).mp4
beta
Anime DDL+NZB mirror
Current Time: 29/01/2022 11:05



About/FAQs

Discord