1. Tokyo Ghoul/[NoobSubs] Tokyo Ghoul 04 (720p Blu-ray Dual Audio 8bit AAC)[60F7857D].mkv


File Size423.3 MB (443,869,359 bytes)
DownloadClickNUpload | DiskoKosmiko | Go4Up | Jheberg | MultiUp | OpenLoad | SolidFiles | ZippyShare
Sendspace: Part1, Part2
HashesCRC32: 60F7857D, MD5: 4375F17645B4C149C55DC69C5219F955, SHA1: 52414828D30BFFAE8E5B801713C1ABEB637345B4, SHA256: 42391899FAC87317D0A4B3CC18D7162959A4AF0D65059293033B0724A50420CC, ED2K: C6ACF464D5BB928E6AEC33A2C2E704FD
Screenshots
screenshotscreenshotscreenshotscreenshotscreenshot
SubtitlesAll Attachments | Signs/Karaoke [BlurayDesuYo] [eng, ASS], [BlurayDesuYo] [eng, ASS]
Additional Info
General
Unique ID                                : 190897386853862796905845821830549704734 (0x8F9D7FD65DA68559AA3B4507D933901E)
Complete name                            : [NoobSubs] Tokyo Ghoul 04 (720p Blu-ray Dual Audio 8bit AAC)[60F7857D].mkv
Format                                   : Matroska
Format version                           : Version 4 / Version 2
File size                                : 423 MiB
Duration                                 : 24 min 1 s
Overall bit rate                         : 2 464 kb/s
Movie name                               : Tokyo Ghoul - 04 - Supper
Track name/Position                      : 4
Track name/Total                         : 12
Encoded date                             : UTC 2018-07-09 10:15:28
Writing application                      : mkvmerge v23.0.0 ('The Bride Said No') 64-bit
Writing library                          : libebml v1.3.6 + libmatroska v1.4.9
Attachments                              : Angie-Bold.ttf / CLEARGL.TTF / Disney_Simple.ttf / huxtable.ttf / ALEX_.ttf
ARTIST                                   : Subs: [BlurayDesuYo]

Video
ID                                       : 1
Format                                   : AVC
Format/Info                              : Advanced Video Codec
Format profile                           : High@L4
Format settings, CABAC                   : Yes
Format settings, ReFrames                : 6 frames
Codec ID                                 : V_MPEG4/ISO/AVC
Duration                                 : 24 min 0 s
Bit rate                                 : 1 662 kb/s
Width                                    : 1 280 pixels
Height                                   : 720 pixels
Display aspect ratio                     : 16:9
Frame rate mode                          : Constant
Frame rate                               : 23.976 (24000/1001) FPS
Color space                              : YUV
Chroma subsampling                       : 4:2:0
Bit depth                                : 8 bits
Scan type                                : Progressive
Bits/(Pixel*Frame)                       : 0.075
Stream size                              : 286 MiB (67%)
Default                                  : Yes
Forced                                   : No

Audio #1
ID                                       : 2
Format                                   : AAC
Format/Info                              : Advanced Audio Codec
Format profile                           : LC
Codec ID                                 : A_AAC
Duration                                 : 23 min 59 s
Bit rate                                 : 265 kb/s
Channel(s)                               : 2 channels
Channel positions                        : Front: L R
Sampling rate                            : 48.0 kHz
Frame rate                               : 46.875 FPS (1024 spf)
Compression mode                         : Lossy
Delay relative to video                  : 8 ms
Stream size                              : 46.2 MiB (11%)
Title                                    : English 2.0 channel AAC
Language                                 : English
Default                                  : Yes
Forced                                   : No

Audio #2
ID                                       : 3
Format                                   : AAC
Format/Info                              : Advanced Audio Codec
Format profile                           : LC
Codec ID                                 : A_AAC
Duration                                 : 24 min 0 s
Bit rate                                 : 276 kb/s
Channel(s)                               : 2 channels
Channel positions                        : Front: L R
Sampling rate                            : 48.0 kHz
Frame rate                               : 46.875 FPS (1024 spf)
Compression mode                         : Lossy
Delay relative to video                  : 8 ms
Stream size                              : 47.4 MiB (11%)
Title                                    : Japanese 2.0 channel AAC
Language                                 : Japanese
Default                                  : No
Forced                                   : No

Audio #3
ID                                       : 4
Format                                   : AAC
Format/Info                              : Advanced Audio Codec
Format profile                           : LC
Codec ID                                 : A_AAC
Duration                                 : 24 min 1 s
Bit rate                                 : 246 kb/s
Channel(s)                               : 2 channels
Channel positions                        : Front: L R
Sampling rate                            : 48.0 kHz
Frame rate                               : 46.875 FPS (1024 spf)
Compression mode                         : Lossy
Delay relative to video                  : 8 ms
Stream size                              : 42.3 MiB (10%)
Title                                    : English Commentary 2.0 channel AAC
Language                                 : English
Default                                  : No
Forced                                   : No

Text #1
ID                                       : 5
Format                                   : ASS
Codec ID                                 : S_TEXT/ASS
Codec ID/Info                            : Advanced Sub Station Alpha
Bit rate                                 : 0 b/s
Count of elements                        : 0
Compression mode                         : Lossless
Stream size                              : 0.00 Byte (0%)
Title                                    : Signs/Karaoke [BlurayDesuYo]
Language                                 : English
Default                                  : Yes
Forced                                   : No

Text #2
ID                                       : 6
Format                                   : ASS
Codec ID                                 : S_TEXT/ASS
Codec ID/Info                            : Advanced Sub Station Alpha
Duration                                 : 23 min 59 s
Bit rate                                 : 112 b/s
Count of elements                        : 368
Compression mode                         : Lossless
Stream size                              : 19.8 KiB (0%)
Title                                    : [BlurayDesuYo]
Language                                 : English
Default                                  : No
Forced                                   : No

Menu
00:00:00.000                             : en:Intro
00:01:13.970                             : en:OP
00:02:44.010                             : en:Part A
00:14:15.000                             : en:Part B
00:22:00.000                             : en:ED
00:23:29.970                             : en:Preview

Other Files in this Torrent
1. Tokyo Ghoul/[NoobSubs] Tokyo Ghoul 04 (720p Blu-ray Dual Audio 8bit AAC)[60F7857D].mkv
beta
Anime DDL+NZB mirror
Current Time: 01/12/2021 15:44



About/FAQs

Discord