2. Tokyo Ghoul Root A/[NoobSubs] Tokyo Ghoul √A 04 (720p Blu-ray Dual Audio 8bit AC3)[F695967E].mkv


File Size493.7 MB (517,681,575 bytes)
DownloadClickNUpload | DiskoKosmiko | Go4Up
  • DownAce
  • FileFactory
  • KatFile
  • Oboom
  • OwnDrives
  • Share-Online
  • TusFiles
  • UploadGig
  • Uppit
  • UsersCloud
| Jheberg | MultiUp | OpenLoad | SolidFiles | ZippyShare
Sendspace: Part1, Part2
HashesCRC32: F695967E, MD5: 5B9C439DA28E08BD21742C43EAE75E4F, SHA1: 0A0F17C2D8538A40D9D061C285ECD70DE78AE65B, SHA256: 5EB2A0C1943F30A3B840CC0E50BC0D8815B446C193AF02E47F02E33CFBEBDD9C, ED2K: 055225C0F6793CDE6F2CB811196957B2
Screenshots
screenshotscreenshotscreenshotscreenshotscreenshot
SubtitlesAll Attachments | Signs/Karaoke [BlurayDesuYo] [eng, ASS], [BlurayDesuYo] [eng, ASS]
Additional Info
General
Unique ID                                : 216736592201987403471417593406117113033 (0xA30DF3051A87B3A04DD731F5DA03ECC9)
Complete name                            : [NoobSubs] Tokyo Ghoul √A 04 (720p Blu-ray Dual Audio 8bit AC3)[F695967E].mkv
Format                                   : Matroska
Format version                           : Version 4 / Version 2
File size                                : 494 MiB
Duration                                 : 24 min 5 s
Overall bit rate                         : 2 864 kb/s
Movie name                               : Tokyo Ghoul √A - 04 - Deeper Layers
Track name/Position                      : 4
Track name/Total                         : 12
Encoded date                             : UTC 2018-07-11 17:16:21
Writing application                      : mkvmerge v23.0.0 ('The Bride Said No') 64-bit
Writing library                          : libebml v1.3.6 + libmatroska v1.4.9
Attachments                              : Angie-Bold.ttf / BinaryITC TT Light.ttf / brushsp.ttf / msgothic_0.ttc / ALEX_.ttf
ARTIST                                   : Subs: [BlurayDesuYo]

Video
ID                                       : 1
Format                                   : AVC
Format/Info                              : Advanced Video Codec
Format profile                           : High@L4
Format settings, CABAC                   : Yes
Format settings, ReFrames                : 6 frames
Codec ID                                 : V_MPEG4/ISO/AVC
Duration                                 : 24 min 5 s
Bit rate                                 : 1 874 kb/s
Width                                    : 1 280 pixels
Height                                   : 720 pixels
Display aspect ratio                     : 16:9
Frame rate mode                          : Constant
Frame rate                               : 23.976 (24000/1001) FPS
Color space                              : YUV
Chroma subsampling                       : 4:2:0
Bit depth                                : 8 bits
Scan type                                : Progressive
Bits/(Pixel*Frame)                       : 0.085
Stream size                              : 323 MiB (65%)
Default                                  : Yes
Forced                                   : No

Audio #1
ID                                       : 2
Format                                   : AC-3
Format/Info                              : Audio Coding 3
Mode extension                           : CM (complete main)
Format settings, Endianness              : Big
Codec ID                                 : A_AC3
Duration                                 : 24 min 4 s
Bit rate mode                            : Constant
Bit rate                                 : 640 kb/s
Channel(s)                               : 6 channels
Channel positions                        : Front: L C R, Side: L R, LFE
Sampling rate                            : 48.0 kHz
Frame rate                               : 31.250 FPS (1536 spf)
Bit depth                                : 16 bits
Compression mode                         : Lossy
Delay relative to video                  : -1 ms
Stream size                              : 110 MiB (22%)
Title                                    : English 5.1 channel AC3
Language                                 : English
Default                                  : Yes
Forced                                   : No

Audio #2
ID                                       : 3
Format                                   : AAC
Format/Info                              : Advanced Audio Codec
Format profile                           : LC
Codec ID                                 : A_AAC
Duration                                 : 24 min 4 s
Bit rate                                 : 288 kb/s
Channel(s)                               : 2 channels
Channel positions                        : Front: L R
Sampling rate                            : 48.0 kHz
Frame rate                               : 46.875 FPS (1024 spf)
Compression mode                         : Lossy
Delay relative to video                  : 8 ms
Stream size                              : 49.6 MiB (10%)
Title                                    : Japanese 2.0 channel AAC
Language                                 : Japanese
Default                                  : No
Forced                                   : No

Text #1
ID                                       : 4
Format                                   : ASS
Codec ID                                 : S_TEXT/ASS
Codec ID/Info                            : Advanced Sub Station Alpha
Bit rate                                 : 0 b/s
Count of elements                        : 0
Compression mode                         : Lossless
Stream size                              : 0.00 Byte (0%)
Title                                    : Signs/Karaoke [BlurayDesuYo]
Language                                 : English
Default                                  : Yes
Forced                                   : No

Text #2
ID                                       : 5
Format                                   : ASS
Codec ID                                 : S_TEXT/ASS
Codec ID/Info                            : Advanced Sub Station Alpha
Duration                                 : 22 min 31 s
Bit rate                                 : 53 b/s
Count of elements                        : 169
Compression mode                         : Lossless
Stream size                              : 8.77 KiB (0%)
Title                                    : [BlurayDesuYo]
Language                                 : English
Default                                  : No
Forced                                   : No

Menu
00:00:00.000                             : en:Chapter 01
00:02:11.005                             : en:Chapter 02
00:03:41.012                             : en:Chapter 03
00:11:16.967                             : en:Chapter 04
00:22:32.934                             : en:Chapter 05
00:24:02.983                             : en:Chapter 06

Other Files in this Torrent
2. Tokyo Ghoul Root A/[NoobSubs] Tokyo Ghoul √A 04 (720p Blu-ray Dual Audio 8bit AC3)[F695967E].mkv
beta
Anime DDL+NZB mirror
Current Time: 01/12/2021 15:57



About/FAQs

Discord