2. Tokyo Ghoul Root A/[NoobSubs] Tokyo Ghoul √A 02 (720p Blu-ray Dual Audio 8bit AC3)[C17032F5].mkv


File Size428.8 MB (449,602,731 bytes)
DownloadClickNUpload | DiskoKosmiko | Go4Up
  • DownAce
  • FileFactory
  • KatFile
  • Oboom
  • OwnDrives
  • Share-Online
  • TusFiles
  • UploadGig
  • Uppit
  • UsersCloud
| Jheberg | MultiUp | OpenLoad | SolidFiles | ZippyShare
Sendspace: Part1, Part2
HashesCRC32: C17032F5, MD5: F9D7B802395B04256A6F9D19336DA628, SHA1: 9DF6F44577ED95B8B0667BE4D9F6A381FEB9C8A3, SHA256: DCABDAE536308E043EABA2316633BEC8E6AA1C38804311196524FADB0000B7F1, ED2K: 40FA864FC80CE1704DDB5CBDA463EC4C
Screenshots
screenshotscreenshotscreenshotscreenshotscreenshot
SubtitlesAll Attachments | Signs/Karaoke [BlurayDesuYo] [eng, ASS], [BlurayDesuYo] [eng, ASS]
Additional Info
General
Unique ID                                : 37997982147835718712311253387829702935 (0x1C9625297FD9C28F28B189CF6E99F117)
Complete name                            : [NoobSubs] Tokyo Ghoul √A 02 (720p Blu-ray Dual Audio 8bit AC3)[C17032F5].mkv
Format                                   : Matroska
Format version                           : Version 4 / Version 2
File size                                : 429 MiB
Duration                                 : 24 min 5 s
Overall bit rate                         : 2 487 kb/s
Movie name                               : Tokyo Ghoul √A - 02 - Dancing Flowers
Track name/Position                      : 2
Track name/Total                         : 12
Encoded date                             : UTC 2018-07-11 17:16:06
Writing application                      : mkvmerge v23.0.0 ('The Bride Said No') 64-bit
Writing library                          : libebml v1.3.6 + libmatroska v1.4.9
Attachments                              : BinaryITC TT Light.ttf / brushsp.ttf / ALEX_.ttf / Angie-Bold.ttf
ARTIST                                   : Subs: [BlurayDesuYo]

Video
ID                                       : 1
Format                                   : AVC
Format/Info                              : Advanced Video Codec
Format profile                           : High@L4
Format settings, CABAC                   : Yes
Format settings, ReFrames                : 6 frames
Codec ID                                 : V_MPEG4/ISO/AVC
Duration                                 : 24 min 5 s
Bit rate                                 : 1 548 kb/s
Width                                    : 1 280 pixels
Height                                   : 720 pixels
Display aspect ratio                     : 16:9
Frame rate mode                          : Constant
Frame rate                               : 23.976 (24000/1001) FPS
Color space                              : YUV
Chroma subsampling                       : 4:2:0
Bit depth                                : 8 bits
Scan type                                : Progressive
Bits/(Pixel*Frame)                       : 0.070
Stream size                              : 267 MiB (62%)
Default                                  : Yes
Forced                                   : No

Audio #1
ID                                       : 2
Format                                   : AC-3
Format/Info                              : Audio Coding 3
Mode extension                           : CM (complete main)
Format settings, Endianness              : Big
Codec ID                                 : A_AC3
Duration                                 : 24 min 4 s
Bit rate mode                            : Constant
Bit rate                                 : 640 kb/s
Channel(s)                               : 6 channels
Channel positions                        : Front: L C R, Side: L R, LFE
Sampling rate                            : 48.0 kHz
Frame rate                               : 31.250 FPS (1536 spf)
Bit depth                                : 16 bits
Compression mode                         : Lossy
Delay relative to video                  : -1 ms
Stream size                              : 110 MiB (26%)
Title                                    : English 5.1 channel AC3
Language                                 : English
Default                                  : Yes
Forced                                   : No

Audio #2
ID                                       : 3
Format                                   : AAC
Format/Info                              : Advanced Audio Codec
Format profile                           : LC
Codec ID                                 : A_AAC
Duration                                 : 24 min 5 s
Bit rate                                 : 278 kb/s
Channel(s)                               : 2 channels
Channel positions                        : Front: L R
Sampling rate                            : 48.0 kHz
Frame rate                               : 46.875 FPS (1024 spf)
Compression mode                         : Lossy
Delay relative to video                  : 8 ms
Stream size                              : 48.0 MiB (11%)
Title                                    : Japanese 2.0 channel AAC
Language                                 : Japanese
Default                                  : No
Forced                                   : No

Text #1
ID                                       : 4
Format                                   : ASS
Codec ID                                 : S_TEXT/ASS
Codec ID/Info                            : Advanced Sub Station Alpha
Bit rate                                 : 0 b/s
Count of elements                        : 0
Compression mode                         : Lossless
Stream size                              : 0.00 Byte (0%)
Title                                    : Signs/Karaoke [BlurayDesuYo]
Language                                 : English
Default                                  : Yes
Forced                                   : No

Text #2
ID                                       : 5
Format                                   : ASS
Codec ID                                 : S_TEXT/ASS
Codec ID/Info                            : Advanced Sub Station Alpha
Duration                                 : 22 min 31 s
Bit rate                                 : 97 b/s
Count of elements                        : 268
Compression mode                         : Lossless
Stream size                              : 16.0 KiB (0%)
Title                                    : [BlurayDesuYo]
Language                                 : English
Default                                  : No
Forced                                   : No

Menu
00:00:00.033                             : en:Intro
00:01:20.970                             : en:OP
00:02:51.020                             : en:Part A
00:12:54.000                             : en:Part B
00:22:31.950                             : en:ED
00:24:02.000                             : en:Preview

Other Files in this Torrent
2. Tokyo Ghoul Root A/[NoobSubs] Tokyo Ghoul √A 02 (720p Blu-ray Dual Audio 8bit AC3)[C17032F5].mkv
beta
Anime DDL+NZB mirror
Current Time: 01/12/2021 16:28



About/FAQs

Discord