1. Tokyo Ghoul/[NoobSubs] Tokyo Ghoul 01 (720p Blu-ray Dual Audio 8bit AAC)[40D5B584].mkv


File Size456.2 MB (478,370,922 bytes)
DownloadClickNUpload | DiskoKosmiko | Go4Up | Jheberg | MultiUp | OpenLoad | SolidFiles | ZippyShare
Sendspace: Part1, Part2
HashesCRC32: 40D5B584, MD5: E6B2099DB590DC7C28DCD049BF9C0D18, SHA1: E0890CA4402FDBCF2A219DEAD5C415049210357F, SHA256: 908F4660D36144199022F24CA5F97350C5AA4177C029DA9C835E7F82DE633605, ED2K: 714031D0CC201A01071EDC5E7D7CE8D8
Screenshots
screenshotscreenshotscreenshotscreenshotscreenshot
SubtitlesAll Attachments | Signs/Karaoke [BlurayDesuYo] [eng, ASS], [BlurayDesuYo] [eng, ASS]
Additional Info
General
Unique ID                                : 287295719995131650899188835249673196769 (0xD823249BDD1C1EBAFE086CA7AB43D4E1)
Complete name                            : [NoobSubs] Tokyo Ghoul 01 (720p Blu-ray Dual Audio 8bit AAC)[40D5B584].mkv
Format                                   : Matroska
Format version                           : Version 4 / Version 2
File size                                : 456 MiB
Duration                                 : 26 min 3 s
Overall bit rate                         : 2 448 kb/s
Movie name                               : Tokyo Ghoul - 01 - Tragedy
Track name/Position                      : 1
Track name/Total                         : 12
Encoded date                             : UTC 2018-07-09 12:13:03
Writing application                      : mkvmerge v23.0.0 ('The Bride Said No') 64-bit
Writing library                          : libebml v1.3.6 + libmatroska v1.4.9
Attachments                              : ALEX_.ttf / Angie-Bold.ttf / arialbd_0.ttf / ariblk.ttf / CLEARGL.TTF / HANDSEAN.TTF / huxtable.ttf / Laser_0.ttf / 14MINUTESSHARP.TTF / 637_0e2d4b16-6374-418b-a9bf-13527ea6414d.ttf.ttf / AaronBecker.ttf / akaDora.ttf / ALBR85W.TTF
ARTIST                                   : Subs: [BlurayDesuYo]

Video
ID                                       : 1
Format                                   : AVC
Format/Info                              : Advanced Video Codec
Format profile                           : High@L4
Format settings, CABAC                   : Yes
Format settings, ReFrames                : 6 frames
Codec ID                                 : V_MPEG4/ISO/AVC
Duration                                 : 26 min 3 s
Bit rate                                 : 1 642 kb/s
Width                                    : 1 280 pixels
Height                                   : 720 pixels
Display aspect ratio                     : 16:9
Frame rate mode                          : Constant
Frame rate                               : 23.976 (24000/1001) FPS
Color space                              : YUV
Chroma subsampling                       : 4:2:0
Bit depth                                : 8 bits
Scan type                                : Progressive
Bits/(Pixel*Frame)                       : 0.074
Stream size                              : 306 MiB (67%)
Default                                  : Yes
Forced                                   : No

Audio #1
ID                                       : 2
Format                                   : AAC
Format/Info                              : Advanced Audio Codec
Format profile                           : LC
Codec ID                                 : A_AAC
Duration                                 : 26 min 2 s
Bit rate                                 : 278 kb/s
Channel(s)                               : 2 channels
Channel positions                        : Front: L R
Sampling rate                            : 48.0 kHz
Frame rate                               : 46.875 FPS (1024 spf)
Compression mode                         : Lossy
Delay relative to video                  : 8 ms
Stream size                              : 51.7 MiB (11%)
Title                                    : English 2.0 channel AAC
Language                                 : English
Default                                  : Yes
Forced                                   : No

Audio #2
ID                                       : 3
Format                                   : AAC
Format/Info                              : Advanced Audio Codec
Format profile                           : LC
Codec ID                                 : A_AAC
Duration                                 : 26 min 2 s
Bit rate                                 : 288 kb/s
Channel(s)                               : 2 channels
Channel positions                        : Front: L R
Sampling rate                            : 48.0 kHz
Frame rate                               : 46.875 FPS (1024 spf)
Compression mode                         : Lossy
Delay relative to video                  : 8 ms
Stream size                              : 53.3 MiB (12%)
Title                                    : Japanese 2.0 channel AAC
Language                                 : Japanese
Default                                  : No
Forced                                   : No

Audio #3
ID                                       : 4
Format                                   : AAC
Format/Info                              : Advanced Audio Codec
Format profile                           : LC
Codec ID                                 : A_AAC
Duration                                 : 26 min 2 s
Bit rate                                 : 227 kb/s
Channel(s)                               : 2 channels
Channel positions                        : Front: L R
Sampling rate                            : 48.0 kHz
Frame rate                               : 46.875 FPS (1024 spf)
Compression mode                         : Lossy
Delay relative to video                  : -1 ms
Stream size                              : 42.4 MiB (9%)
Title                                    : Japanese Commentary 2.0 channel AAC
Language                                 : Japanese
Default                                  : No
Forced                                   : No

Text #1
ID                                       : 5
Format                                   : ASS
Codec ID                                 : S_TEXT/ASS
Codec ID/Info                            : Advanced Sub Station Alpha
Bit rate                                 : 0 b/s
Count of elements                        : 0
Compression mode                         : Lossless
Stream size                              : 0.00 Byte (0%)
Title                                    : Signs/Karaoke [BlurayDesuYo]
Language                                 : English
Default                                  : Yes
Forced                                   : No

Text #2
ID                                       : 6
Format                                   : ASS
Codec ID                                 : S_TEXT/ASS
Codec ID/Info                            : Advanced Sub Station Alpha
Duration                                 : 26 min 1 s
Bit rate                                 : 107 b/s
Count of elements                        : 363
Compression mode                         : Lossless
Stream size                              : 20.4 KiB (0%)
Title                                    : [BlurayDesuYo]
Language                                 : English
Default                                  : No
Forced                                   : No

Menu
00:00:00.000                             : en:Intro
00:02:06.980                             : en:Part A
00:12:12.000                             : en:Part B
00:23:59.910                             : en:ED
00:25:29.960                             : en:Preview

Other Files in this Torrent
1. Tokyo Ghoul/[NoobSubs] Tokyo Ghoul 01 (720p Blu-ray Dual Audio 8bit AAC)[40D5B584].mkv
beta
Anime DDL+NZB mirror
Current Time: 01/12/2021 16:05



About/FAQs

Discord