2. Tokyo Ghoul Root A/Extras/[NoobSubs] Tokyo Ghoul √A Video Commentary (720p Blu-ray 8bit AAC).mp4


File Size652.7 MB (684,407,939 bytes)
DownloadClickNUpload | DiskoKosmiko | Go4Up | Jheberg | MultiUp | OpenLoad
Sendspace: Part1, Part2, Part3
SolidFiles: Part1, Part2
ZippyShare: Part1, Part2
HashesCRC32: 26EAFC95, MD5: FB1317E9260EC30FDE36C03E47472C13, SHA1: B3D5C7FF61CED6FB18107CEDD220879475AF5B11, SHA256: C95C2AC9C4AE85635022006E1FDCF3416645DFEB4890745C5CC4F8FAC85F6A70, ED2K: ABE572022C24E99EDBB0CB8F7079B10D
Screenshots
screenshotscreenshotscreenshotscreenshotscreenshot
Additional Info
General
Complete name                            : [NoobSubs] Tokyo Ghoul √A Video Commentary (720p Blu-ray 8bit AAC).mp4
Format                                   : MPEG-4
Format profile                           : Base Media
Codec ID                                 : isom (isom/avc1)
File size                                : 653 MiB
Duration                                 : 24 min 7 s
Overall bit rate mode                    : Variable
Overall bit rate                         : 3 784 kb/s
Movie name                               : [NoobSubs] Tokyo Ghoul √A Video Commentary (720p Blu-ray 8bit AAC)
Album                                    : Tokyo Ghoul √A Specials
Track name/Position                      : 1
Track name/Total                         : 1
Performer                                : Subs: None
Encoded date                             : UTC 2016-05-26 19:45:18
Tagged date                              : UTC 2016-05-26 22:56:25
replaygain_track_gain                    : +1.22 dB
replaygain_track_minmax                  : 106,169
replaygain_track_peak                    : 0.680000
replaygain_undo                          : -2,-2

Video
ID                                       : 1
Format                                   : AVC
Format/Info                              : Advanced Video Codec
Format profile                           : High@L4
Format settings, CABAC                   : Yes
Format settings, ReFrames                : 6 frames
Codec ID                                 : avc1
Codec ID/Info                            : Advanced Video Coding
Duration                                 : 24 min 7 s
Bit rate                                 : 3 589 kb/s
Maximum bit rate                         : 7 107 kb/s
Width                                    : 1 280 pixels
Height                                   : 720 pixels
Display aspect ratio                     : 16:9
Frame rate mode                          : Constant
Frame rate                               : 23.976 (24000/1001) FPS
Color space                              : YUV
Chroma subsampling                       : 4:2:0
Bit depth                                : 8 bits
Scan type                                : Progressive
Bits/(Pixel*Frame)                       : 0.162
Stream size                              : 619 MiB (95%)
Title                                    : 264@GPAC0.6.2-DEV-rev142-g9a9a995-master
Writing library                          : x264 core 148 r2665 a01e339
Encoding settings                        : cabac=1 / ref=6 / deblock=1:0:0 / analyse=0x3:0x133 / me=umh / subme=10 / psy=1 / psy_rd=1.00:0.00 / mixed_ref=1 / me_range=24 / chroma_me=1 / trellis=2 / 8x8dct=1 / cqm=0 / deadzone=21,11 / fast_pskip=1 / chroma_qp_offset=-2 / threads=12 / lookahead_threads=2 / sliced_threads=0 / nr=0 / decimate=1 / interlaced=0 / bluray_compat=0 / constrained_intra=0 / bframes=7 / b_pyramid=2 / b_adapt=2 / b_bias=0 / direct=3 / weightb=1 / open_gop=0 / weightp=2 / keyint=250 / keyint_min=23 / scenecut=40 / intra_refresh=0 / rc_lookahead=60 / rc=crf / mbtree=1 / crf=17.3 / qcomp=0.60 / qpmin=0 / qpmax=69 / qpstep=4 / ip_ratio=1.40 / aq=1:1.00
Encoded date                             : UTC 2016-05-26 19:45:18
Tagged date                              : UTC 2016-05-26 19:45:24

Audio
ID                                       : 2
Format                                   : AAC
Format/Info                              : Advanced Audio Codec
Format profile                           : LC
Codec ID                                 : 40
Duration                                 : 24 min 6 s
Bit rate mode                            : Variable
Bit rate                                 : 192 kb/s
Maximum bit rate                         : 275 kb/s
Channel(s)                               : 2 channels
Channel positions                        : Front: L R
Sampling rate                            : 48.0 kHz
Frame rate                               : 46.875 FPS (1024 spf)
Compression mode                         : Lossy
Stream size                              : 32.9 MiB (5%)
Encoded date                             : UTC 2016-05-26 19:44:45
Tagged date                              : UTC 2016-05-26 19:45:24

Other Files in this Torrent
2. Tokyo Ghoul Root A/Extras/[NoobSubs] Tokyo Ghoul √A Video Commentary (720p Blu-ray 8bit AAC).mp4
beta
Anime DDL+NZB mirror
Current Time: 01/12/2021 15:41



About/FAQs

Discord