1. Tokyo Ghoul/[NoobSubs] Tokyo Ghoul 06 (720p Blu-ray Dual Audio 8bit AAC)[DFE03CB2].mkv


File Size443.8 MB (465,354,438 bytes)
DownloadClickNUpload | DiskoKosmiko | Go4Up | Jheberg | MultiUp | OpenLoad | SolidFiles | ZippyShare
Sendspace: Part1, Part2
HashesCRC32: DFE03CB2, MD5: 375E1D2862E941BA6167C3B8FCABCFA4, SHA1: 5D15A96BE8EC23021AD2C497FDBB911045F0A3BA, SHA256: 9E32CB5259BE32C1EE244623235E2281083A2B6A3C6B8D7377343F17CEC6730C, ED2K: 020D9119B705EFDC8436BF16A4378D74
Screenshots
screenshotscreenshotscreenshotscreenshotscreenshot
SubtitlesAll Attachments | Signs/Karaoke [BlurayDesuYo] [eng, ASS], [BlurayDesuYo] [eng, ASS]
Additional Info
General
Unique ID                                : 34766280199076252360891915002021926955 (0x1A27BDF44DDE1763B1DEF988AF7BD82B)
Complete name                            : [NoobSubs] Tokyo Ghoul 06 (720p Blu-ray Dual Audio 8bit AAC)[DFE03CB2].mkv
Format                                   : Matroska
Format version                           : Version 4 / Version 2
File size                                : 444 MiB
Duration                                 : 24 min 0 s
Overall bit rate                         : 2 584 kb/s
Movie name                               : Tokyo Ghoul - 06 - Cloudburst
Track name/Position                      : 6
Track name/Total                         : 12
Encoded date                             : UTC 2018-07-09 10:16:14
Writing application                      : mkvmerge v23.0.0 ('The Bride Said No') 64-bit
Writing library                          : libebml v1.3.6 + libmatroska v1.4.9
Attachments                              : CLEARGL.TTF / Disney_Simple.ttf / huxtable.ttf / ALEX_.ttf / Angie-Bold.ttf
ARTIST                                   : Subs: [BlurayDesuYo]

Video
ID                                       : 1
Format                                   : AVC
Format/Info                              : Advanced Video Codec
Format profile                           : High@L4
Format settings, CABAC                   : Yes
Format settings, ReFrames                : 6 frames
Codec ID                                 : V_MPEG4/ISO/AVC
Duration                                 : 24 min 0 s
Bit rate                                 : 2 027 kb/s
Width                                    : 1 280 pixels
Height                                   : 720 pixels
Display aspect ratio                     : 16:9
Frame rate mode                          : Constant
Frame rate                               : 23.976 (24000/1001) FPS
Color space                              : YUV
Chroma subsampling                       : 4:2:0
Bit depth                                : 8 bits
Scan type                                : Progressive
Bits/(Pixel*Frame)                       : 0.092
Stream size                              : 348 MiB (78%)
Default                                  : Yes
Forced                                   : No

Audio #1
ID                                       : 2
Format                                   : AAC
Format/Info                              : Advanced Audio Codec
Format profile                           : LC
Codec ID                                 : A_AAC
Duration                                 : 24 min 0 s
Bit rate                                 : 265 kb/s
Channel(s)                               : 2 channels
Channel positions                        : Front: L R
Sampling rate                            : 48.0 kHz
Frame rate                               : 46.875 FPS (1024 spf)
Compression mode                         : Lossy
Delay relative to video                  : 8 ms
Stream size                              : 46.2 MiB (10%)
Title                                    : English 2.0 channel AAC
Language                                 : English
Default                                  : Yes
Forced                                   : No

Audio #2
ID                                       : 3
Format                                   : AAC
Format/Info                              : Advanced Audio Codec
Format profile                           : LC
Codec ID                                 : A_AAC
Duration                                 : 23 min 59 s
Bit rate                                 : 278 kb/s
Channel(s)                               : 2 channels
Channel positions                        : Front: L R
Sampling rate                            : 48.0 kHz
Frame rate                               : 46.875 FPS (1024 spf)
Compression mode                         : Lossy
Delay relative to video                  : 8 ms
Stream size                              : 47.7 MiB (11%)
Title                                    : Japanese 2.0 channel AAC
Language                                 : Japanese
Default                                  : No
Forced                                   : No

Text #1
ID                                       : 4
Format                                   : ASS
Codec ID                                 : S_TEXT/ASS
Codec ID/Info                            : Advanced Sub Station Alpha
Bit rate                                 : 0 b/s
Count of elements                        : 0
Compression mode                         : Lossless
Stream size                              : 0.00 Byte (0%)
Title                                    : Signs/Karaoke [BlurayDesuYo]
Language                                 : English
Default                                  : Yes
Forced                                   : No

Text #2
ID                                       : 5
Format                                   : ASS
Codec ID                                 : S_TEXT/ASS
Codec ID/Info                            : Advanced Sub Station Alpha
Duration                                 : 23 min 59 s
Bit rate                                 : 94 b/s
Count of elements                        : 350
Compression mode                         : Lossless
Stream size                              : 16.6 KiB (0%)
Title                                    : [BlurayDesuYo]
Language                                 : English
Default                                  : No
Forced                                   : No

Menu
00:00:00.000                             : en:Intro
00:05:19.960                             : en:OP
00:06:49.970                             : en:Part A
00:14:50.910                             : en:Part B
00:21:58.460                             : en:ED
00:23:29.970                             : en:Preview

Other Files in this Torrent
1. Tokyo Ghoul/[NoobSubs] Tokyo Ghoul 06 (720p Blu-ray Dual Audio 8bit AAC)[DFE03CB2].mkv
beta
Anime DDL+NZB mirror
Current Time: 29/01/2022 11:29



About/FAQs

Discord