1. Tokyo Ghoul/[NoobSubs] Tokyo Ghoul 11 (720p Blu-ray Dual Audio 8bit AAC)[5B757058].mkv


File Size387.8 MB (406,680,913 bytes)
DownloadClickNUpload | DiskoKosmiko | Go4Up | Jheberg | MultiUp | OpenLoad | SolidFiles | ZippyShare
Sendspace: Part1, Part2
HashesCRC32: 5B757058, MD5: 6F5953AF5320EA2AF9F868E7FABE4274, SHA1: 7C719C4277FEFD354B229141CB43CA3EC70010F3, SHA256: 49F3CDB7DA9D16B63840A44D9B0CB33AAF170A5FF52B7349C6176A744CF66C2D, ED2K: 3853B3C75779EEFAE6F1CCC1C58A4F11
Screenshots
screenshotscreenshotscreenshotscreenshotscreenshot
SubtitlesAll Attachments | Signs/Karaoke [BlurayDesuYo] [eng, ASS], [BlurayDesuYo] [eng, ASS]
Additional Info
General
Unique ID                                : 315195840712487558098264634893929453177 (0xED2082C39F21FF4CFC991D7C8BDE9679)
Complete name                            : [NoobSubs] Tokyo Ghoul 11 (720p Blu-ray Dual Audio 8bit AAC)[5B757058].mkv
Format                                   : Matroska
Format version                           : Version 4 / Version 2
File size                                : 388 MiB
Duration                                 : 24 min 6 s
Overall bit rate                         : 2 250 kb/s
Movie name                               : Tokyo Ghoul - 11 - High Spirits
Track name/Position                      : 11
Track name/Total                         : 12
Encoded date                             : UTC 2018-07-09 10:18:46
Writing application                      : mkvmerge v23.0.0 ('The Bride Said No') 64-bit
Writing library                          : libebml v1.3.6 + libmatroska v1.4.9
Attachments                              : Angie-Bold.ttf / CLEARGL.TTF / Framdcn.TTF / Harabara.ttf / huxtable.ttf / AFKlampenborg_Medium.ttf / ALEX_.ttf
ARTIST                                   : Subs: [BlurayDesuYo]

Video
ID                                       : 1
Format                                   : AVC
Format/Info                              : Advanced Video Codec
Format profile                           : High@L4
Format settings, CABAC                   : Yes
Format settings, ReFrames                : 6 frames
Codec ID                                 : V_MPEG4/ISO/AVC
Duration                                 : 24 min 6 s
Bit rate                                 : 1 657 kb/s
Width                                    : 1 280 pixels
Height                                   : 720 pixels
Display aspect ratio                     : 16:9
Frame rate mode                          : Constant
Frame rate                               : 23.976 (24000/1001) FPS
Color space                              : YUV
Chroma subsampling                       : 4:2:0
Bit depth                                : 8 bits
Scan type                                : Progressive
Bits/(Pixel*Frame)                       : 0.075
Stream size                              : 286 MiB (74%)
Default                                  : Yes
Forced                                   : No

Audio #1
ID                                       : 2
Format                                   : AAC
Format/Info                              : Advanced Audio Codec
Format profile                           : LC
Codec ID                                 : A_AAC
Duration                                 : 24 min 6 s
Bit rate                                 : 288 kb/s
Channel(s)                               : 2 channels
Channel positions                        : Front: L R
Sampling rate                            : 48.0 kHz
Frame rate                               : 46.875 FPS (1024 spf)
Compression mode                         : Lossy
Delay relative to video                  : 8 ms
Stream size                              : 48.9 MiB (13%)
Title                                    : English 2.0 channel AAC
Language                                 : English
Default                                  : Yes
Forced                                   : No

Audio #2
ID                                       : 3
Format                                   : AAC
Format/Info                              : Advanced Audio Codec
Format profile                           : LC
Codec ID                                 : A_AAC
Duration                                 : 24 min 5 s
Bit rate                                 : 288 kb/s
Channel(s)                               : 2 channels
Channel positions                        : Front: L R
Sampling rate                            : 48.0 kHz
Frame rate                               : 46.875 FPS (1024 spf)
Compression mode                         : Lossy
Delay relative to video                  : 8 ms
Stream size                              : 49.3 MiB (13%)
Title                                    : Japanese 2.0 channel AAC
Language                                 : Japanese
Default                                  : No
Forced                                   : No

Text #1
ID                                       : 4
Format                                   : ASS
Codec ID                                 : S_TEXT/ASS
Codec ID/Info                            : Advanced Sub Station Alpha
Bit rate                                 : 0 b/s
Count of elements                        : 0
Compression mode                         : Lossless
Stream size                              : 0.00 Byte (0%)
Title                                    : Signs/Karaoke [BlurayDesuYo]
Language                                 : English
Default                                  : Yes
Forced                                   : No

Text #2
ID                                       : 5
Format                                   : ASS
Codec ID                                 : S_TEXT/ASS
Codec ID/Info                            : Advanced Sub Station Alpha
Duration                                 : 23 min 55 s
Bit rate                                 : 85 b/s
Count of elements                        : 292
Compression mode                         : Lossless
Stream size                              : 15.0 KiB (0%)
Title                                    : [BlurayDesuYo]
Language                                 : English
Default                                  : No
Forced                                   : No

Menu
00:00:00.000                             : en:Intro
00:00:30.000                             : en:OP
00:02:00.010                             : en:Part A
00:12:32.060                             : en:Part B
00:22:05.090                             : en:ED
00:23:35.060                             : en:Preview

Other Files in this Torrent
1. Tokyo Ghoul/[NoobSubs] Tokyo Ghoul 11 (720p Blu-ray Dual Audio 8bit AAC)[5B757058].mkv
beta
Anime DDL+NZB mirror
Current Time: 07/12/2021 03:34



About/FAQs

Discord