2. Tokyo Ghoul Root A/[NoobSubs] Tokyo Ghoul √A 06 (720p Blu-ray Dual Audio 8bit AC3)[33945670].mkv


File Size464.9 MB (487,466,399 bytes)
DownloadClickNUpload | DiskoKosmiko | Go4Up
  • DownAce
  • FileFactory
  • KatFile
  • Oboom
  • OwnDrives
  • Share-Online
  • TusFiles
  • UploadGig
  • Uppit
  • UsersCloud
| Jheberg | MultiUp | OpenLoad | SolidFiles | ZippyShare
Sendspace: Part1, Part2
HashesCRC32: 33945670, MD5: C6319EDF64E9682C9D82CD5221ECC022, SHA1: C235BB532F499664A938F527A04AD44B1D040F23, SHA256: 9992036ED38A7B1D93F34FFC4D114DCA3F9E4651D97102F5C71963FB8AD67AE6, ED2K: B4477C9B05D551E4A2A1F1E0BD77C56F
Screenshots
screenshotscreenshotscreenshotscreenshotscreenshot
SubtitlesAll Attachments | Signs/Karaoke [BlurayDesuYo] [eng, ASS], [BlurayDesuYo] [eng, ASS]
Additional Info
General
Unique ID                                : 169968742127732333012798624200507987488 (0x7FDEC9FC62F53B4DA3AC4D4E071F1620)
Complete name                            : [NoobSubs] Tokyo Ghoul √A 06 (720p Blu-ray Dual Audio 8bit AC3)[33945670].mkv
Format                                   : Matroska
Format version                           : Version 4 / Version 2
File size                                : 465 MiB
Duration                                 : 24 min 9 s
Overall bit rate                         : 2 691 kb/s
Movie name                               : Tokyo Ghoul √A - 06 - Thousand Paths
Track name/Position                      : 6
Track name/Total                         : 12
Encoded date                             : UTC 2018-07-11 17:16:45
Writing application                      : mkvmerge v23.0.0 ('The Bride Said No') 64-bit
Writing library                          : libebml v1.3.6 + libmatroska v1.4.9
Attachments                              : BinaryITC TT Light.ttf / blue highway bd.otf / blue highway rg.otf / brushsp.ttf / Material_Sans.otf / ALEX_.ttf / Angie-Bold.ttf
ARTIST                                   : Subs: [BlurayDesuYo]

Video
ID                                       : 1
Format                                   : AVC
Format/Info                              : Advanced Video Codec
Format profile                           : High@L4
Format settings, CABAC                   : Yes
Format settings, ReFrames                : 6 frames
Codec ID                                 : V_MPEG4/ISO/AVC
Duration                                 : 24 min 5 s
Bit rate                                 : 1 769 kb/s
Width                                    : 1 280 pixels
Height                                   : 720 pixels
Display aspect ratio                     : 16:9
Frame rate mode                          : Constant
Frame rate                               : 23.976 (24000/1001) FPS
Color space                              : YUV
Chroma subsampling                       : 4:2:0
Bit depth                                : 8 bits
Scan type                                : Progressive
Bits/(Pixel*Frame)                       : 0.080
Stream size                              : 305 MiB (66%)
Default                                  : Yes
Forced                                   : No

Audio #1
ID                                       : 2
Format                                   : AC-3
Format/Info                              : Audio Coding 3
Mode extension                           : CM (complete main)
Format settings, Endianness              : Big
Codec ID                                 : A_AC3
Duration                                 : 24 min 4 s
Bit rate mode                            : Constant
Bit rate                                 : 640 kb/s
Channel(s)                               : 6 channels
Channel positions                        : Front: L C R, Side: L R, LFE
Sampling rate                            : 48.0 kHz
Frame rate                               : 31.250 FPS (1536 spf)
Bit depth                                : 16 bits
Compression mode                         : Lossy
Delay relative to video                  : -1 ms
Stream size                              : 110 MiB (24%)
Title                                    : English 5.1 channel AC3
Language                                 : English
Default                                  : Yes
Forced                                   : No

Audio #2
ID                                       : 3
Format                                   : AAC
Format/Info                              : Advanced Audio Codec
Format profile                           : LC
Codec ID                                 : A_AAC
Duration                                 : 24 min 5 s
Bit rate                                 : 265 kb/s
Channel(s)                               : 2 channels
Channel positions                        : Front: L R
Sampling rate                            : 48.0 kHz
Frame rate                               : 46.875 FPS (1024 spf)
Compression mode                         : Lossy
Delay relative to video                  : 8 ms
Stream size                              : 46.2 MiB (10%)
Title                                    : Japanese 2.0 channel AAC
Language                                 : Japanese
Default                                  : No
Forced                                   : No

Text #1
ID                                       : 4
Format                                   : ASS
Codec ID                                 : S_TEXT/ASS
Codec ID/Info                            : Advanced Sub Station Alpha
Bit rate                                 : 0 b/s
Count of elements                        : 0
Compression mode                         : Lossless
Stream size                              : 0.00 Byte (0%)
Title                                    : Signs/Karaoke [BlurayDesuYo]
Language                                 : English
Default                                  : Yes
Forced                                   : No

Text #2
ID                                       : 5
Format                                   : ASS
Codec ID                                 : S_TEXT/ASS
Codec ID/Info                            : Advanced Sub Station Alpha
Duration                                 : 24 min 9 s
Bit rate                                 : 80 b/s
Count of elements                        : 247
Compression mode                         : Lossless
Stream size                              : 14.2 KiB (0%)
Title                                    : [BlurayDesuYo]
Language                                 : English
Default                                  : No
Forced                                   : No

Menu
00:00:00.033                             : en:Intro
00:01:06.960                             : en:OP
00:02:37.010                             : en:Part A
00:11:52.980                             : en:Part B
00:22:31.950                             : en:ED
00:24:02.000                             : en:Preview

Other Files in this Torrent
2. Tokyo Ghoul Root A/[NoobSubs] Tokyo Ghoul √A 06 (720p Blu-ray Dual Audio 8bit AC3)[33945670].mkv
beta
Anime DDL+NZB mirror
Current Time: 09/12/2021 00:56



About/FAQs

Discord