2. Tokyo Ghoul Root A/[NoobSubs] Tokyo Ghoul √A 08 (720p Blu-ray Dual Audio 8bit AC3)[3B74D649].mkv


File Size454.3 MB (476,316,398 bytes)
DownloadClickNUpload | DiskoKosmiko | Go4Up
  • DownAce
  • FileFactory
  • KatFile
  • Oboom
  • OwnDrives
  • Share-Online
  • TusFiles
  • UploadGig
  • Uppit
  • UsersCloud
| Jheberg | MultiUp | OpenLoad | SolidFiles | ZippyShare
Sendspace: Part1, Part2
HashesCRC32: 3B74D649, MD5: E9C46C92430B737F5662972143F50DA8, SHA1: 9E94B242383C4AADD28403D04B303DEE3CC04CD1, SHA256: DEA1AD2AC5659A22AD0A89596C503FF27235979A10CCD306A80A58C038DA2521, ED2K: B662889BABDFC90EEBB081364E96573F
Screenshots
screenshotscreenshotscreenshotscreenshotscreenshot
SubtitlesAll Attachments | Signs/Karaoke [BlurayDesuYo] [eng, ASS], [BlurayDesuYo] [eng, ASS]
Additional Info
General
Unique ID                                : 37345482625523960670971121776329291979 (0x1C187A73AD9D5CAE1E134D500278F8CB)
Complete name                            : [NoobSubs] Tokyo Ghoul √A 08 (720p Blu-ray Dual Audio 8bit AC3)[3B74D649].mkv
Format                                   : Matroska
Format version                           : Version 4 / Version 2
File size                                : 454 MiB
Duration                                 : 24 min 5 s
Overall bit rate                         : 2 635 kb/s
Movie name                               : Tokyo Ghoul √A - 08 - Old Nines
Track name/Position                      : 8
Track name/Total                         : 12
Encoded date                             : UTC 2018-07-11 17:17:03
Writing application                      : mkvmerge v23.0.0 ('The Bride Said No') 64-bit
Writing library                          : libebml v1.3.6 + libmatroska v1.4.9
Attachments                              : BinaryITC TT Light.ttf / brushsp.ttf / ALEX_.ttf / Angie-Bold.ttf
ARTIST                                   : Subs: [BlurayDesuYo]

Video
ID                                       : 1
Format                                   : AVC
Format/Info                              : Advanced Video Codec
Format profile                           : High@L4
Format settings, CABAC                   : Yes
Format settings, ReFrames                : 6 frames
Codec ID                                 : V_MPEG4/ISO/AVC
Duration                                 : 24 min 5 s
Bit rate                                 : 1 689 kb/s
Width                                    : 1 280 pixels
Height                                   : 720 pixels
Display aspect ratio                     : 16:9
Frame rate mode                          : Constant
Frame rate                               : 23.976 (24000/1001) FPS
Color space                              : YUV
Chroma subsampling                       : 4:2:0
Bit depth                                : 8 bits
Scan type                                : Progressive
Bits/(Pixel*Frame)                       : 0.076
Stream size                              : 291 MiB (64%)
Default                                  : Yes
Forced                                   : No

Audio #1
ID                                       : 2
Format                                   : AC-3
Format/Info                              : Audio Coding 3
Mode extension                           : CM (complete main)
Format settings, Endianness              : Big
Codec ID                                 : A_AC3
Duration                                 : 24 min 4 s
Bit rate mode                            : Constant
Bit rate                                 : 640 kb/s
Channel(s)                               : 6 channels
Channel positions                        : Front: L C R, Side: L R, LFE
Sampling rate                            : 48.0 kHz
Frame rate                               : 31.250 FPS (1536 spf)
Bit depth                                : 16 bits
Compression mode                         : Lossy
Delay relative to video                  : -1 ms
Stream size                              : 110 MiB (24%)
Title                                    : English 5.1 channel AC3
Language                                 : English
Default                                  : Yes
Forced                                   : No

Audio #2
ID                                       : 3
Format                                   : AAC
Format/Info                              : Advanced Audio Codec
Format profile                           : LC
Codec ID                                 : A_AAC
Duration                                 : 24 min 4 s
Bit rate                                 : 288 kb/s
Channel(s)                               : 2 channels
Channel positions                        : Front: L R
Sampling rate                            : 48.0 kHz
Frame rate                               : 46.875 FPS (1024 spf)
Compression mode                         : Lossy
Delay relative to video                  : 8 ms
Stream size                              : 49.5 MiB (11%)
Title                                    : Japanese 2.0 channel AAC
Language                                 : Japanese
Default                                  : No
Forced                                   : No

Text #1
ID                                       : 4
Format                                   : ASS
Codec ID                                 : S_TEXT/ASS
Codec ID/Info                            : Advanced Sub Station Alpha
Bit rate                                 : 0 b/s
Count of elements                        : 0
Compression mode                         : Lossless
Stream size                              : 0.00 Byte (0%)
Title                                    : Signs/Karaoke [BlurayDesuYo]
Language                                 : English
Default                                  : Yes
Forced                                   : No

Text #2
ID                                       : 5
Format                                   : ASS
Codec ID                                 : S_TEXT/ASS
Codec ID/Info                            : Advanced Sub Station Alpha
Duration                                 : 22 min 31 s
Bit rate                                 : 64 b/s
Count of elements                        : 202
Compression mode                         : Lossless
Stream size                              : 10.7 KiB (0%)
Title                                    : [BlurayDesuYo]
Language                                 : English
Default                                  : No
Forced                                   : No

Menu
00:00:00.033                             : en:Intro
00:07:09.950                             : en:OP
00:08:39.950                             : en:Part A
00:12:57.920                             : en:Part B
00:22:31.870                             : en:ED
00:24:01.920                             : en:Preview

Other Files in this Torrent
2. Tokyo Ghoul Root A/[NoobSubs] Tokyo Ghoul √A 08 (720p Blu-ray Dual Audio 8bit AC3)[3B74D649].mkv
beta
Anime DDL+NZB mirror
Current Time: 01/12/2021 14:58



About/FAQs

Discord