1. Tokyo Ghoul/[NoobSubs] Tokyo Ghoul 09 (720p Blu-ray Dual Audio 8bit AAC)[3A31C182].mkv


File Size329.4 MB (345,386,434 bytes)
DownloadClickNUpload | DiskoKosmiko | Go4Up | Jheberg | MultiUp | OpenLoad | SolidFiles | ZippyShare
Sendspace: Part1, Part2
HashesCRC32: 3A31C182, MD5: E8C7F28937EF94CA5BE85298675D5904, SHA1: 563600B40E2A754D2E7FE9C8CACDC1A0120A4587, SHA256: 3939A10ECE0BC502DCFD6068DE18EB5DD31960AA6FFE4F20FCAEAB446E08B2E3, ED2K: 9FAFB550F10AB77822BB5AFC0DCEE149
Screenshots
screenshotscreenshotscreenshotscreenshotscreenshot
SubtitlesAll Attachments | Signs/Karaoke [BlurayDesuYo] [eng, ASS], [BlurayDesuYo] [eng, ASS]
Additional Info
General
Unique ID                                : 116891566782067641475535237392325118255 (0x57F07F32F351DA8B7925F691E837892F)
Complete name                            : [NoobSubs] Tokyo Ghoul 09 (720p Blu-ray Dual Audio 8bit AAC)[3A31C182].mkv
Format                                   : Matroska
Format version                           : Version 4 / Version 2
File size                                : 329 MiB
Duration                                 : 24 min 6 s
Overall bit rate                         : 1 911 kb/s
Movie name                               : Tokyo Ghoul - 09 - Birdcage
Track name/Position                      : 9
Track name/Total                         : 12
Encoded date                             : UTC 2018-07-09 10:18:01
Writing application                      : mkvmerge v23.0.0 ('The Bride Said No') 64-bit
Writing library                          : libebml v1.3.6 + libmatroska v1.4.9
Attachments                              : arial_0.ttf / ariblk.ttf / bluehighv2.ttf / CLEARGL.TTF / huxtable.ttf / ALEX_.ttf / Angie-Bold.ttf
ARTIST                                   : Subs: [BlurayDesuYo]

Video
ID                                       : 1
Format                                   : AVC
Format/Info                              : Advanced Video Codec
Format profile                           : High@L4
Format settings, CABAC                   : Yes
Format settings, ReFrames                : 6 frames
Codec ID                                 : V_MPEG4/ISO/AVC
Duration                                 : 24 min 5 s
Bit rate                                 : 1 349 kb/s
Width                                    : 1 280 pixels
Height                                   : 720 pixels
Display aspect ratio                     : 16:9
Frame rate mode                          : Constant
Frame rate                               : 23.976 (24000/1001) FPS
Color space                              : YUV
Chroma subsampling                       : 4:2:0
Bit depth                                : 8 bits
Scan type                                : Progressive
Bits/(Pixel*Frame)                       : 0.061
Stream size                              : 233 MiB (71%)
Default                                  : Yes
Forced                                   : No

Audio #1
ID                                       : 2
Format                                   : AAC
Format/Info                              : Advanced Audio Codec
Format profile                           : LC
Codec ID                                 : A_AAC
Duration                                 : 24 min 6 s
Bit rate                                 : 265 kb/s
Channel(s)                               : 2 channels
Channel positions                        : Front: L R
Sampling rate                            : 48.0 kHz
Frame rate                               : 46.875 FPS (1024 spf)
Compression mode                         : Lossy
Delay relative to video                  : 8 ms
Stream size                              : 46.2 MiB (14%)
Title                                    : English 2.0 channel AAC
Language                                 : English
Default                                  : Yes
Forced                                   : No

Audio #2
ID                                       : 3
Format                                   : AAC
Format/Info                              : Advanced Audio Codec
Format profile                           : LC
Codec ID                                 : A_AAC
Duration                                 : 24 min 5 s
Bit rate                                 : 276 kb/s
Channel(s)                               : 2 channels
Channel positions                        : Front: L R
Sampling rate                            : 48.0 kHz
Frame rate                               : 46.875 FPS (1024 spf)
Compression mode                         : Lossy
Delay relative to video                  : 8 ms
Stream size                              : 47.5 MiB (14%)
Title                                    : Japanese 2.0 channel AAC
Language                                 : Japanese
Default                                  : No
Forced                                   : No

Text #1
ID                                       : 4
Format                                   : ASS
Codec ID                                 : S_TEXT/ASS
Codec ID/Info                            : Advanced Sub Station Alpha
Bit rate                                 : 0 b/s
Count of elements                        : 0
Compression mode                         : Lossless
Stream size                              : 0.00 Byte (0%)
Title                                    : Signs/Karaoke [BlurayDesuYo]
Language                                 : English
Default                                  : Yes
Forced                                   : No

Text #2
ID                                       : 5
Format                                   : ASS
Codec ID                                 : S_TEXT/ASS
Codec ID/Info                            : Advanced Sub Station Alpha
Duration                                 : 24 min 5 s
Bit rate                                 : 113 b/s
Count of elements                        : 353
Compression mode                         : Lossless
Stream size                              : 20.0 KiB (0%)
Title                                    : [BlurayDesuYo]
Language                                 : English
Default                                  : No
Forced                                   : No

Menu
00:00:00.000                             : en:Intro
00:06:15.930                             : en:OP
00:07:45.980                             : en:Part A
00:13:51.970                             : en:Part B
00:22:05.010                             : en:ED
00:23:34.970                             : en:Preview

Other Files in this Torrent
1. Tokyo Ghoul/[NoobSubs] Tokyo Ghoul 09 (720p Blu-ray Dual Audio 8bit AAC)[3A31C182].mkv
beta
Anime DDL+NZB mirror
Current Time: 01/12/2021 15:05



About/FAQs

Discord