1. Tokyo Ghoul/Extras/[NoobSubs] Kaneki in Black and White (720p Blu-ray eng dub 8bit AAC).mp4


File Size548.2 MB (574,784,478 bytes)
DownloadClickNUpload | DiskoKosmiko | Go4Up | Jheberg | MultiUp | OpenLoad
Sendspace: Part1, Part2
SolidFiles: Part1, Part2
ZippyShare: Part1, Part2
HashesCRC32: 240846E6, MD5: 1642F4C500BCEAE2CFB119593F028C76, SHA1: AA02C958B200FFFA3F72545F53FAE3CBE34C3A2B, SHA256: 9A89DA9D796F3CFF68BCEE237CBBF355CF95EC804D83D11F27D15598CC26B64E, ED2K: BC6CF8851775A1BFD7DC99725597D073
Screenshots
screenshotscreenshotscreenshotscreenshotscreenshot
Additional Info
General
Complete name                            : [NoobSubs] Kaneki in Black and White (720p Blu-ray eng dub 8bit AAC).mp4
Format                                   : MPEG-4
Format profile                           : Base Media
Codec ID                                 : isom (isom/avc1/iso6)
File size                                : 548 MiB
Duration                                 : 27 min 42 s
Overall bit rate mode                    : Variable
Overall bit rate                         : 2 766 kb/s
Movie name                               : [NoobSubs] Kaneki in Black and White (720p Blu-ray eng dub 8bit AAC)
Album                                    : Tokyo Ghoul
Track name/Position                      : 1
Track name/Total                         : 1
Performer                                : Subs: None
Encoded date                             : UTC 2015-09-30 22:58:35
Tagged date                              : UTC 2015-09-30 22:59:22
replaygain_track_gain                    : +1.68 dB
replaygain_track_minmax                  : 93,177
replaygain_track_peak                    : 0.890000
replaygain_undo                          : -2,-2

Video
ID                                       : 1
Format                                   : AVC
Format/Info                              : Advanced Video Codec
Format profile                           : High@L4.1
Format settings, CABAC                   : Yes
Format settings, ReFrames                : 9 frames
Codec ID                                 : avc1
Codec ID/Info                            : Advanced Video Coding
Duration                                 : 27 min 42 s
Bit rate                                 : 2 506 kb/s
Maximum bit rate                         : 17.3 Mb/s
Width                                    : 1 280 pixels
Height                                   : 720 pixels
Display aspect ratio                     : 16:9
Frame rate mode                          : Constant
Frame rate                               : 23.976 (24000/1001) FPS
Color space                              : YUV
Chroma subsampling                       : 4:2:0
Bit depth                                : 8 bits
Scan type                                : Progressive
Bits/(Pixel*Frame)                       : 0.113
Stream size                              : 497 MiB (91%)
Title                                    : h264@GPAC0.5.2-DEV-rev248-g39d5978-master
Writing library                          : x264 core 144 r2525 40bb568
Encoding settings                        : cabac=1 / ref=9 / deblock=1:-1:-1 / analyse=0x3:0x113 / me=umh / subme=11 / psy=1 / psy_rd=1.00:0.00 / mixed_ref=1 / me_range=48 / chroma_me=1 / trellis=2 / 8x8dct=1 / cqm=0 / deadzone=21,11 / fast_pskip=1 / chroma_qp_offset=-2 / threads=12 / lookahead_threads=2 / sliced_threads=0 / nr=0 / decimate=1 / interlaced=0 / bluray_compat=0 / constrained_intra=0 / bframes=9 / b_pyramid=2 / b_adapt=2 / b_bias=0 / direct=3 / weightb=1 / open_gop=0 / weightp=2 / keyint=240 / keyint_min=23 / scenecut=40 / intra_refresh=0 / rc_lookahead=144 / rc=crf / mbtree=1 / crf=16.0 / qcomp=0.60 / qpmin=0 / qpmax=69 / qpstep=4 / vbv_maxrate=25000 / vbv_bufsize=31250 / crf_max=0.0 / nal_hrd=none / filler=0 / ip_ratio=1.40 / aq=1:1.00
Encoded date                             : UTC 2015-09-30 22:58:35
Tagged date                              : UTC 2015-09-30 22:58:40

Audio
ID                                       : 2
Format                                   : AAC
Format/Info                              : Advanced Audio Codec
Format profile                           : LC
Codec ID                                 : 40
Duration                                 : 27 min 42 s
Bit rate mode                            : Variable
Bit rate                                 : 256 kb/s
Maximum bit rate                         : 316 kb/s
Channel(s)                               : 2 channels
Channel positions                        : Front: L R
Sampling rate                            : 48.0 kHz
Frame rate                               : 46.875 FPS (1024 spf)
Compression mode                         : Lossy
Stream size                              : 50.7 MiB (9%)
Title                                    : aac@GPAC0.5.2-DEV-rev248-g39d5978-master
Encoded date                             : UTC 2015-09-30 22:58:40
Tagged date                              : UTC 2015-09-30 22:58:40

Other Files in this Torrent
1. Tokyo Ghoul/Extras/[NoobSubs] Kaneki in Black and White (720p Blu-ray eng dub 8bit AAC).mp4
beta
Anime DDL+NZB mirror
Current Time: 07/12/2021 02:18



About/FAQs

Discord