1. Tokyo Ghoul/[NoobSubs] Tokyo Ghoul 05 (720p Blu-ray Dual Audio 8bit AAC)[7CBCD018].mkv


File Size420.3 MB (440,723,869 bytes)
DownloadClickNUpload | DiskoKosmiko | Go4Up | Jheberg | MultiUp | OpenLoad | SolidFiles | ZippyShare
Sendspace: Part1, Part2
HashesCRC32: 7CBCD018, MD5: 3E974519760589FDF47F085D168E3BC3, SHA1: 92CAAAF38DA5F307050E23BBD36CC3ABE9A19BF8, SHA256: 85431392600FEE36252A95C95779C3FACBF392FEDDAC1FE27E698F61E2788ED8, ED2K: FA2D748BD39B1F55454DA55B24BEC468
Screenshots
screenshotscreenshotscreenshotscreenshotscreenshot
SubtitlesAll Attachments | Signs/Karaoke [BlurayDesuYo] [eng, ASS], [BlurayDesuYo] [eng, ASS]
Additional Info
General
Unique ID                                : 165064065683293864935752161673829385659 (0x7C2E2EC463E036BD1B915BC8DD7F85BB)
Complete name                            : [NoobSubs] Tokyo Ghoul 05 (720p Blu-ray Dual Audio 8bit AAC)[7CBCD018].mkv
Format                                   : Matroska
Format version                           : Version 4 / Version 2
File size                                : 420 MiB
Duration                                 : 24 min 5 s
Overall bit rate                         : 2 440 kb/s
Movie name                               : Tokyo Ghoul - 05 - Scars
Track name/Position                      : 5
Track name/Total                         : 12
Encoded date                             : UTC 2018-07-09 10:15:50
Writing application                      : mkvmerge v23.0.0 ('The Bride Said No') 64-bit
Writing library                          : libebml v1.3.6 + libmatroska v1.4.9
Attachments                              : Angie-Bold.ttf / Clannad_Round_Regular.ttf / CLEARGL.TTF / CWBTRIAL.otf / huxtable.ttf
ARTIST                                   : Subs: [BlurayDesuYo]

Video
ID                                       : 1
Format                                   : AVC
Format/Info                              : Advanced Video Codec
Format profile                           : High@L4
Format settings, CABAC                   : Yes
Format settings, ReFrames                : 6 frames
Codec ID                                 : V_MPEG4/ISO/AVC
Duration                                 : 24 min 4 s
Bit rate                                 : 1 639 kb/s
Width                                    : 1 280 pixels
Height                                   : 720 pixels
Display aspect ratio                     : 16:9
Frame rate mode                          : Constant
Frame rate                               : 23.976 (24000/1001) FPS
Color space                              : YUV
Chroma subsampling                       : 4:2:0
Bit depth                                : 8 bits
Scan type                                : Progressive
Bits/(Pixel*Frame)                       : 0.074
Stream size                              : 282 MiB (67%)
Default                                  : Yes
Forced                                   : No

Audio #1
ID                                       : 2
Format                                   : AAC
Format/Info                              : Advanced Audio Codec
Format profile                           : LC
Codec ID                                 : A_AAC
Duration                                 : 24 min 5 s
Bit rate                                 : 273 kb/s
Channel(s)                               : 2 channels
Channel positions                        : Front: L R
Sampling rate                            : 48.0 kHz
Frame rate                               : 46.875 FPS (1024 spf)
Compression mode                         : Lossy
Delay relative to video                  : 8 ms
Stream size                              : 47.0 MiB (11%)
Title                                    : English 2.0 channel AAC
Language                                 : English
Default                                  : Yes
Forced                                   : No

Audio #2
ID                                       : 3
Format                                   : AAC
Format/Info                              : Advanced Audio Codec
Format profile                           : LC
Codec ID                                 : A_AAC
Duration                                 : 24 min 5 s
Bit rate                                 : 288 kb/s
Channel(s)                               : 2 channels
Channel positions                        : Front: L R
Sampling rate                            : 48.0 kHz
Frame rate                               : 46.875 FPS (1024 spf)
Compression mode                         : Lossy
Delay relative to video                  : 8 ms
Stream size                              : 48.9 MiB (12%)
Title                                    : Japanese 2.0 channel AAC
Language                                 : Japanese
Default                                  : No
Forced                                   : No

Audio #3
ID                                       : 4
Format                                   : AAC
Format/Info                              : Advanced Audio Codec
Format profile                           : LC
Codec ID                                 : A_AAC
Duration                                 : 24 min 5 s
Bit rate                                 : 235 kb/s
Channel(s)                               : 2 channels
Channel positions                        : Front: L R
Sampling rate                            : 48.0 kHz
Frame rate                               : 46.875 FPS (1024 spf)
Compression mode                         : Lossy
Delay relative to video                  : -1 ms
Stream size                              : 40.4 MiB (10%)
Title                                    : Japanese Commentary 2.0 channel AAC
Language                                 : Japanese
Default                                  : No
Forced                                   : No

Text #1
ID                                       : 5
Format                                   : ASS
Codec ID                                 : S_TEXT/ASS
Codec ID/Info                            : Advanced Sub Station Alpha
Bit rate                                 : 0 b/s
Count of elements                        : 0
Compression mode                         : Lossless
Stream size                              : 0.00 Byte (0%)
Title                                    : Signs/Karaoke [BlurayDesuYo]
Language                                 : English
Default                                  : Yes
Forced                                   : No

Text #2
ID                                       : 6
Format                                   : ASS
Codec ID                                 : S_TEXT/ASS
Codec ID/Info                            : Advanced Sub Station Alpha
Duration                                 : 22 min 35 s
Bit rate                                 : 110 b/s
Count of elements                        : 359
Compression mode                         : Lossless
Stream size                              : 18.2 KiB (0%)
Title                                    : [BlurayDesuYo]
Language                                 : English
Default                                  : No
Forced                                   : No

Menu
00:00:00.000                             : en:Intro
00:00:23.000                             : en:OP
00:01:53.000                             : en:Part A
00:10:08.040                             : en:Part B
00:22:35.000                             : en:ED

Other Files in this Torrent
1. Tokyo Ghoul/[NoobSubs] Tokyo Ghoul 05 (720p Blu-ray Dual Audio 8bit AAC)[7CBCD018].mkv
beta
Anime DDL+NZB mirror
Current Time: 07/12/2021 03:27



About/FAQs

Discord