1. Tokyo Ghoul/[NoobSubs] Tokyo Ghoul 10 (720p Blu-ray Dual Audio 8bit AAC)[F77D0189].mkv


File Size363.9 MB (381,592,049 bytes)
DownloadClickNUpload | DiskoKosmiko | Go4Up | Jheberg | MultiUp | OpenLoad | SolidFiles | ZippyShare
Sendspace: Part1, Part2
HashesCRC32: F77D0189, MD5: A2D5C032F8FA88063C6CC13C5B0EF596, SHA1: 4D9B1B449855EC3A3AF71FFA47F3666ABFEE2E95, SHA256: 9C653BF98211C8A10BB1C3CDA0A5639BB2F32E58324A8692C262647EF0957088, ED2K: C5A3E9CBEF8881736281191608FFF0F0
Screenshots
screenshotscreenshotscreenshotscreenshotscreenshot
SubtitlesAll Attachments | Signs/Karaoke [BlurayDesuYo] [eng, ASS], [BlurayDesuYo] [eng, ASS]
Additional Info
General
Unique ID                                : 205510848646701754838775633616142321096 (0x9A9BF32189EF50EE59DC119D079BC5C8)
Complete name                            : [NoobSubs] Tokyo Ghoul 10 (720p Blu-ray Dual Audio 8bit AAC)[F77D0189].mkv
Format                                   : Matroska
Format version                           : Version 4 / Version 2
File size                                : 364 MiB
Duration                                 : 24 min 6 s
Overall bit rate                         : 2 111 kb/s
Movie name                               : Tokyo Ghoul - 10 - Aogiri
Track name/Position                      : 10
Track name/Total                         : 12
Encoded date                             : UTC 2018-07-09 10:18:25
Writing application                      : mkvmerge v23.0.0 ('The Bride Said No') 64-bit
Writing library                          : libebml v1.3.6 + libmatroska v1.4.9
Attachments                              : Angie-Bold.ttf / arial_0.ttf / CLEARGL.TTF / huxtable.ttf / HWYGOTH.TTF / ACaslonPro-Bold.otf / AFKlampenborg_Medium.ttf / ALEX_.ttf
ARTIST                                   : Subs: [BlurayDesuYo]

Video
ID                                       : 1
Format                                   : AVC
Format/Info                              : Advanced Video Codec
Format profile                           : High@L4
Format settings, CABAC                   : Yes
Format settings, ReFrames                : 6 frames
Codec ID                                 : V_MPEG4/ISO/AVC
Duration                                 : 24 min 5 s
Bit rate                                 : 1 536 kb/s
Width                                    : 1 280 pixels
Height                                   : 720 pixels
Display aspect ratio                     : 16:9
Frame rate mode                          : Constant
Frame rate                               : 23.976 (24000/1001) FPS
Color space                              : YUV
Chroma subsampling                       : 4:2:0
Bit depth                                : 8 bits
Scan type                                : Progressive
Bits/(Pixel*Frame)                       : 0.070
Stream size                              : 265 MiB (73%)
Default                                  : Yes
Forced                                   : No

Audio #1
ID                                       : 2
Format                                   : AAC
Format/Info                              : Advanced Audio Codec
Format profile                           : LC
Codec ID                                 : A_AAC
Duration                                 : 24 min 6 s
Bit rate                                 : 274 kb/s
Channel(s)                               : 2 channels
Channel positions                        : Front: L R
Sampling rate                            : 48.0 kHz
Frame rate                               : 46.875 FPS (1024 spf)
Compression mode                         : Lossy
Delay relative to video                  : 8 ms
Stream size                              : 47.2 MiB (13%)
Title                                    : English 2.0 channel AAC
Language                                 : English
Default                                  : Yes
Forced                                   : No

Audio #2
ID                                       : 3
Format                                   : AAC
Format/Info                              : Advanced Audio Codec
Format profile                           : LC
Codec ID                                 : A_AAC
Duration                                 : 24 min 5 s
Bit rate                                 : 288 kb/s
Channel(s)                               : 2 channels
Channel positions                        : Front: L R
Sampling rate                            : 48.0 kHz
Frame rate                               : 46.875 FPS (1024 spf)
Compression mode                         : Lossy
Delay relative to video                  : 8 ms
Stream size                              : 49.0 MiB (13%)
Title                                    : Japanese 2.0 channel AAC
Language                                 : Japanese
Default                                  : No
Forced                                   : No

Text #1
ID                                       : 4
Format                                   : ASS
Codec ID                                 : S_TEXT/ASS
Codec ID/Info                            : Advanced Sub Station Alpha
Bit rate                                 : 0 b/s
Count of elements                        : 0
Compression mode                         : Lossless
Stream size                              : 0.00 Byte (0%)
Title                                    : Signs/Karaoke [BlurayDesuYo]
Language                                 : English
Default                                  : Yes
Forced                                   : No

Text #2
ID                                       : 5
Format                                   : ASS
Codec ID                                 : S_TEXT/ASS
Codec ID/Info                            : Advanced Sub Station Alpha
Duration                                 : 24 min 5 s
Bit rate                                 : 101 b/s
Count of elements                        : 333
Compression mode                         : Lossless
Stream size                              : 18.0 KiB (0%)
Title                                    : [BlurayDesuYo]
Language                                 : English
Default                                  : No
Forced                                   : No

Menu
00:00:00.000                             : en:Intro
00:01:03.960                             : en:OP
00:02:34.000                             : en:Part A
00:15:19.980                             : en:Part B
00:22:05.010                             : en:ED
00:23:34.970                             : en:Preview

Other Files in this Torrent
1. Tokyo Ghoul/[NoobSubs] Tokyo Ghoul 10 (720p Blu-ray Dual Audio 8bit AAC)[F77D0189].mkv
beta
Anime DDL+NZB mirror
Current Time: 29/01/2022 09:33



About/FAQs

Discord