2. Tokyo Ghoul Root A/[NoobSubs] Tokyo Ghoul √A 11 (720p Blu-ray Dual Audio 8bit AC3)[3ACA2C6F].mkv


File Size539.1 MB (565,316,416 bytes)
DownloadClickNUpload | DiskoKosmiko | Go4Up
  • DownAce
  • FileFactory
  • KatFile
  • Oboom
  • OwnDrives
  • Share-Online
  • TusFiles
  • UploadGig
  • Uppit
  • UsersCloud
| Jheberg | MultiUp | OpenLoad
Sendspace: Part1, Part2
SolidFiles: Part1, Part2
ZippyShare: Part1, Part2
HashesCRC32: 3ACA2C6F, MD5: C7712574EDB5B82B5281D43ED440F4D7, SHA1: 2C5C8A1DC69AA7EC84A50DB70CE6EFEADA08B602, SHA256: E81ACF8B091243ED08DCC642E6DCBB6F10F67469158267ECC02CD122479E37B9, ED2K: 6C62D5C175583C1FD52B1072DED82CFD
Screenshots
screenshotscreenshotscreenshotscreenshotscreenshot
SubtitlesAll Attachments | Signs/Karaoke [BlurayDesuYo] [eng, ASS], [BlurayDesuYo] [eng, ASS]
Additional Info
General
Unique ID                                : 59810989044617469101478953407260745875 (0x2CFF2D6F5BC11B089FFDD17626516093)
Complete name                            : [NoobSubs] Tokyo Ghoul √A 11 (720p Blu-ray Dual Audio 8bit AC3)[3ACA2C6F].mkv
Format                                   : Matroska
Format version                           : Version 4 / Version 2
File size                                : 539 MiB
Duration                                 : 24 min 6 s
Overall bit rate                         : 3 128 kb/s
Movie name                               : Tokyo Ghoul √A - 11 - Deluge of Flowers
Track name/Position                      : 11
Track name/Total                         : 12
Encoded date                             : UTC 2018-07-11 17:17:39
Writing application                      : mkvmerge v23.0.0 ('The Bride Said No') 64-bit
Writing library                          : libebml v1.3.6 + libmatroska v1.4.9
Attachments                              : Angie-Bold.ttf / BinaryITC TT Light.ttf / brushsp.ttf / ALEX_.ttf
ARTIST                                   : Subs: [BlurayDesuYo]

Video
ID                                       : 1
Format                                   : AVC
Format/Info                              : Advanced Video Codec
Format profile                           : High@L4
Format settings, CABAC                   : Yes
Format settings, ReFrames                : 6 frames
Codec ID                                 : V_MPEG4/ISO/AVC
Duration                                 : 24 min 6 s
Bit rate                                 : 2 194 kb/s
Width                                    : 1 280 pixels
Height                                   : 720 pixels
Display aspect ratio                     : 16:9
Frame rate mode                          : Constant
Frame rate                               : 23.976 (24000/1001) FPS
Color space                              : YUV
Chroma subsampling                       : 4:2:0
Bit depth                                : 8 bits
Scan type                                : Progressive
Bits/(Pixel*Frame)                       : 0.099
Stream size                              : 378 MiB (70%)
Default                                  : Yes
Forced                                   : No

Audio #1
ID                                       : 2
Format                                   : AC-3
Format/Info                              : Audio Coding 3
Mode extension                           : CM (complete main)
Format settings, Endianness              : Big
Codec ID                                 : A_AC3
Duration                                 : 24 min 5 s
Bit rate mode                            : Constant
Bit rate                                 : 640 kb/s
Channel(s)                               : 6 channels
Channel positions                        : Front: L C R, Side: L R, LFE
Sampling rate                            : 48.0 kHz
Frame rate                               : 31.250 FPS (1536 spf)
Bit depth                                : 16 bits
Compression mode                         : Lossy
Delay relative to video                  : -1 ms
Stream size                              : 110 MiB (20%)
Title                                    : English 5.1 channel AC3
Language                                 : English
Default                                  : Yes
Forced                                   : No

Audio #2
ID                                       : 3
Format                                   : AAC
Format/Info                              : Advanced Audio Codec
Format profile                           : LC
Codec ID                                 : A_AAC
Duration                                 : 24 min 5 s
Bit rate                                 : 288 kb/s
Channel(s)                               : 2 channels
Channel positions                        : Front: L R
Sampling rate                            : 48.0 kHz
Frame rate                               : 46.875 FPS (1024 spf)
Compression mode                         : Lossy
Delay relative to video                  : 8 ms
Stream size                              : 48.8 MiB (9%)
Title                                    : Japanese 2.0 channel AAC
Language                                 : Japanese
Default                                  : No
Forced                                   : No

Text #1
ID                                       : 4
Format                                   : ASS
Codec ID                                 : S_TEXT/ASS
Codec ID/Info                            : Advanced Sub Station Alpha
Bit rate                                 : 0 b/s
Count of elements                        : 0
Compression mode                         : Lossless
Stream size                              : 0.00 Byte (0%)
Title                                    : Signs/Karaoke [BlurayDesuYo]
Language                                 : English
Default                                  : Yes
Forced                                   : No

Text #2
ID                                       : 5
Format                                   : ASS
Codec ID                                 : S_TEXT/ASS
Codec ID/Info                            : Advanced Sub Station Alpha
Duration                                 : 24 min 0 s
Bit rate                                 : 23 b/s
Count of elements                        : 92
Compression mode                         : Lossless
Stream size                              : 4.15 KiB (0%)
Title                                    : [BlurayDesuYo]
Language                                 : English
Default                                  : No
Forced                                   : No

Menu
00:00:00.033                             : en:Prologue
00:03:08.950                             : en:Opening
00:04:39.000                             : en:Part A
00:15:39.000                             : en:Part B
00:21:50.030                             : en:Ending
00:23:20.080                             : en:Epilogue
00:24:00.210                             : en:Preview

Other Files in this Torrent
2. Tokyo Ghoul Root A/[NoobSubs] Tokyo Ghoul √A 11 (720p Blu-ray Dual Audio 8bit AC3)[3ACA2C6F].mkv
beta
Anime DDL+NZB mirror
Current Time: 25/05/2022 17:25



About/FAQs

Discord