1. Tokyo Ghoul/[NoobSubs] Tokyo Ghoul 03 (720p Blu-ray Dual Audio 8bit AAC)[A3F20308].mkv


File Size343.5 MB (360,231,342 bytes)
DownloadClickNUpload | DiskoKosmiko | Go4Up | Jheberg | MultiUp | OpenLoad | SolidFiles | ZippyShare
Sendspace: Part1, Part2
HashesCRC32: A3F20308, MD5: 4E413C0E9E2CAA09334DAE6DC587C9D5, SHA1: 6DC69CC3D1E0E084C6C11AA9FB479AAECA0E1F1A, SHA256: 1A422195567833BCA9B1F7D0BBE9E4B5307B6857888EC743C3E64C72216D6FDB, ED2K: 836A8F7A774A30C23DEF64B42E22F990
Screenshots
screenshotscreenshotscreenshotscreenshotscreenshot
SubtitlesAll Attachments | Signs/Karaoke [BlurayDesuYo] [eng, ASS], [BlurayDesuYo] [eng, ASS]
Additional Info
General
Unique ID                                : 268757320883669256065602898262942718301 (0xCA30C6F6FE3826FDD8C80F76B3CA995D)
Complete name                            : [NoobSubs] Tokyo Ghoul 03 (720p Blu-ray Dual Audio 8bit AAC)[A3F20308].mkv
Format                                   : Matroska
Format version                           : Version 4 / Version 2
File size                                : 344 MiB
Duration                                 : 24 min 2 s
Overall bit rate                         : 1 998 kb/s
Movie name                               : Tokyo Ghoul - 03 - Dove
Track name/Position                      : 3
Track name/Total                         : 12
Encoded date                             : UTC 2018-07-09 10:15:08
Writing application                      : mkvmerge v23.0.0 ('The Bride Said No') 64-bit
Writing library                          : libebml v1.3.6 + libmatroska v1.4.9
Attachments                              : cv pixelado.ttf / huxtable.ttf / HWYGOTH.TTF / ALEX_.ttf / Angie-Bold.ttf / CLEARGL.TTF
ARTIST                                   : Subs: [BlurayDesuYo]

Video
ID                                       : 1
Format                                   : AVC
Format/Info                              : Advanced Video Codec
Format profile                           : High@L4
Format settings, CABAC                   : Yes
Format settings, ReFrames                : 6 frames
Codec ID                                 : V_MPEG4/ISO/AVC
Duration                                 : 24 min 0 s
Bit rate                                 : 1 451 kb/s
Width                                    : 1 280 pixels
Height                                   : 720 pixels
Display aspect ratio                     : 16:9
Frame rate mode                          : Constant
Frame rate                               : 23.976 (24000/1001) FPS
Color space                              : YUV
Chroma subsampling                       : 4:2:0
Bit depth                                : 8 bits
Scan type                                : Progressive
Bits/(Pixel*Frame)                       : 0.066
Stream size                              : 249 MiB (73%)
Default                                  : Yes
Forced                                   : No

Audio #1
ID                                       : 2
Format                                   : AAC
Format/Info                              : Advanced Audio Codec
Format profile                           : LC
Codec ID                                 : A_AAC
Duration                                 : 23 min 59 s
Bit rate                                 : 265 kb/s
Channel(s)                               : 2 channels
Channel positions                        : Front: L R
Sampling rate                            : 48.0 kHz
Frame rate                               : 46.875 FPS (1024 spf)
Compression mode                         : Lossy
Delay relative to video                  : 8 ms
Stream size                              : 45.7 MiB (13%)
Title                                    : English 2.0 channel AAC
Language                                 : English
Default                                  : Yes
Forced                                   : No

Audio #2
ID                                       : 3
Format                                   : AAC
Format/Info                              : Advanced Audio Codec
Format profile                           : LC
Codec ID                                 : A_AAC
Duration                                 : 24 min 0 s
Bit rate                                 : 272 kb/s
Channel(s)                               : 2 channels
Channel positions                        : Front: L R
Sampling rate                            : 48.0 kHz
Frame rate                               : 46.875 FPS (1024 spf)
Compression mode                         : Lossy
Delay relative to video                  : 8 ms
Stream size                              : 46.7 MiB (14%)
Title                                    : Japanese 2.0 channel AAC
Language                                 : Japanese
Default                                  : No
Forced                                   : No

Text #1
ID                                       : 4
Format                                   : ASS
Codec ID                                 : S_TEXT/ASS
Codec ID/Info                            : Advanced Sub Station Alpha
Bit rate                                 : 0 b/s
Count of elements                        : 0
Compression mode                         : Lossless
Stream size                              : 0.00 Byte (0%)
Title                                    : Signs/Karaoke [BlurayDesuYo]
Language                                 : English
Default                                  : Yes
Forced                                   : No

Text #2
ID                                       : 5
Format                                   : ASS
Codec ID                                 : S_TEXT/ASS
Codec ID/Info                            : Advanced Sub Station Alpha
Duration                                 : 24 min 2 s
Bit rate                                 : 127 b/s
Count of elements                        : 417
Compression mode                         : Lossless
Stream size                              : 22.4 KiB (0%)
Title                                    : [BlurayDesuYo]
Language                                 : English
Default                                  : No
Forced                                   : No

Menu
00:00:00.000                             : en:Intro
00:00:40.010                             : en:OP
00:02:10.980                             : en:Part A
00:11:54.980                             : en:Part B
00:22:00.630                             : en:ED
00:23:29.970                             : en:Preview

Other Files in this Torrent
1. Tokyo Ghoul/[NoobSubs] Tokyo Ghoul 03 (720p Blu-ray Dual Audio 8bit AAC)[A3F20308].mkv
beta
Anime DDL+NZB mirror
Current Time: 01/12/2021 14:57



About/FAQs

Discord