2. Tokyo Ghoul Root A/[NoobSubs] Tokyo Ghoul √A 05 (720p Blu-ray Dual Audio 8bit AC3)[3FC5F5EF].mkv


File Size578.1 MB (606,170,385 bytes)
DownloadClickNUpload | DiskoKosmiko | Go4Up
  • DownAce
  • FileFactory
  • KatFile
  • Oboom
  • OwnDrives
  • Share-Online
  • TusFiles
  • UploadGig
  • Uppit
  • UsersCloud
| Jheberg | MultiUp | OpenLoad
Sendspace: Part1, Part2
SolidFiles: Part1, Part2
ZippyShare: Part1, Part2
HashesCRC32: 3FC5F5EF, MD5: 7C942C1C73D3ED71C2FFA5E5D923B05C, SHA1: 458465A9077237DCCCF44D132E007ADC85737B0B, SHA256: 076350134CCF06733D1DA68E98FAE6C93E483A662BA97A6A099EE5776557DB8F, ED2K: 5EA582ECE2DD5C8B18636EBC37FC2BEA
Screenshots
screenshotscreenshotscreenshotscreenshotscreenshot
SubtitlesAll Attachments | Signs/Karaoke [BlurayDesuYo] [eng, ASS], [BlurayDesuYo] [eng, ASS]
Additional Info
General
Unique ID                                : 308288263547911009519372544243156634161 (0xE7EE28EA6C3643026DE4871C82D3CA31)
Complete name                            : [NoobSubs] Tokyo Ghoul √A 05 (720p Blu-ray Dual Audio 8bit AC3)[3FC5F5EF].mkv
Format                                   : Matroska
Format version                           : Version 4 / Version 2
File size                                : 578 MiB
Duration                                 : 24 min 8 s
Overall bit rate                         : 3 349 kb/s
Movie name                               : Tokyo Ghoul √A - 05 - Rift
Track name/Position                      : 5
Track name/Total                         : 12
Encoded date                             : UTC 2018-07-11 17:16:31
Writing application                      : mkvmerge v23.0.0 ('The Bride Said No') 64-bit
Writing library                          : libebml v1.3.6 + libmatroska v1.4.9
Attachments                              : Angie-Bold.ttf / BinaryITC TT Light.ttf / brushsp.ttf / ALEX_.ttf
ARTIST                                   : Subs: [BlurayDesuYo]

Video
ID                                       : 1
Format                                   : AVC
Format/Info                              : Advanced Video Codec
Format profile                           : High@L4
Format settings, CABAC                   : Yes
Format settings, ReFrames                : 6 frames
Codec ID                                 : V_MPEG4/ISO/AVC
Duration                                 : 24 min 6 s
Bit rate                                 : 2 149 kb/s
Width                                    : 1 280 pixels
Height                                   : 720 pixels
Display aspect ratio                     : 16:9
Frame rate mode                          : Constant
Frame rate                               : 23.976 (24000/1001) FPS
Color space                              : YUV
Chroma subsampling                       : 4:2:0
Bit depth                                : 8 bits
Scan type                                : Progressive
Bits/(Pixel*Frame)                       : 0.097
Stream size                              : 370 MiB (64%)
Default                                  : Yes
Forced                                   : No

Audio #1
ID                                       : 2
Format                                   : AC-3
Format/Info                              : Audio Coding 3
Mode extension                           : CM (complete main)
Format settings, Endianness              : Big
Codec ID                                 : A_AC3
Duration                                 : 24 min 5 s
Bit rate mode                            : Constant
Bit rate                                 : 640 kb/s
Channel(s)                               : 6 channels
Channel positions                        : Front: L C R, Side: L R, LFE
Sampling rate                            : 48.0 kHz
Frame rate                               : 31.250 FPS (1536 spf)
Bit depth                                : 16 bits
Compression mode                         : Lossy
Delay relative to video                  : -1 ms
Stream size                              : 110 MiB (19%)
Title                                    : English 5.1 channel AC3
Language                                 : English
Default                                  : Yes
Forced                                   : No

Audio #2
ID                                       : 3
Format                                   : AAC
Format/Info                              : Advanced Audio Codec
Format profile                           : LC
Codec ID                                 : A_AAC
Duration                                 : 24 min 5 s
Bit rate                                 : 282 kb/s
Channel(s)                               : 2 channels
Channel positions                        : Front: L R
Sampling rate                            : 48.0 kHz
Frame rate                               : 46.875 FPS (1024 spf)
Compression mode                         : Lossy
Delay relative to video                  : 8 ms
Stream size                              : 48.5 MiB (8%)
Title                                    : Japanese 2.0 channel AAC
Language                                 : Japanese
Default                                  : No
Forced                                   : No

Audio #3
ID                                       : 4
Format                                   : AAC
Format/Info                              : Advanced Audio Codec
Format profile                           : LC
Codec ID                                 : A_AAC
Duration                                 : 24 min 5 s
Bit rate                                 : 259 kb/s
Channel(s)                               : 2 channels
Channel positions                        : Front: L R
Sampling rate                            : 48.0 kHz
Frame rate                               : 46.875 FPS (1024 spf)
Compression mode                         : Lossy
Delay relative to video                  : -1 ms
Stream size                              : 44.6 MiB (8%)
Title                                    : Japanese Commentary 2.0 channel AAC
Language                                 : Japanese
Default                                  : No
Forced                                   : No

Text #1
ID                                       : 5
Format                                   : ASS
Codec ID                                 : S_TEXT/ASS
Codec ID/Info                            : Advanced Sub Station Alpha
Bit rate                                 : 0 b/s
Count of elements                        : 0
Compression mode                         : Lossless
Stream size                              : 0.00 Byte (0%)
Title                                    : Signs/Karaoke [BlurayDesuYo]
Language                                 : English
Default                                  : Yes
Forced                                   : No

Text #2
ID                                       : 6
Format                                   : ASS
Codec ID                                 : S_TEXT/ASS
Codec ID/Info                            : Advanced Sub Station Alpha
Duration                                 : 24 min 8 s
Bit rate                                 : 36 b/s
Count of elements                        : 147
Compression mode                         : Lossless
Stream size                              : 6.48 KiB (0%)
Title                                    : [BlurayDesuYo]
Language                                 : English
Default                                  : No
Forced                                   : No

Menu
00:00:00.033                             : en:Intro
00:03:27.970                             : en:OP
00:04:58.020                             : en:Part A
00:11:01.050                             : en:Part B
00:22:31.990                             : en:ED
00:24:02.040                             : en:Preview

Other Files in this Torrent
2. Tokyo Ghoul Root A/[NoobSubs] Tokyo Ghoul √A 05 (720p Blu-ray Dual Audio 8bit AC3)[3FC5F5EF].mkv
beta
Anime DDL+NZB mirror
Current Time: 01/12/2021 15:35



About/FAQs

Discord