2. Tokyo Ghoul Root A/[NoobSubs] Tokyo Ghoul √A 03 (720p Blu-ray Dual Audio 8bit AC3)[4ADCDFC2].mkv


File Size496.3 MB (520,454,421 bytes)
DownloadClickNUpload | DiskoKosmiko | Go4Up
  • DownAce
  • FileFactory
  • KatFile
  • Oboom
  • OwnDrives
  • Share-Online
  • TusFiles
  • UploadGig
  • Uppit
  • UsersCloud
| Jheberg | MultiUp | OpenLoad | SolidFiles | ZippyShare
Sendspace: Part1, Part2
HashesCRC32: 4ADCDFC2, MD5: CB0D4509B09901F6946972715C9D910D, SHA1: 08E0BB5AB4503327B893BC3B7628E61BF761E6C4, SHA256: 87D90E7A75F0D1C982AF49CF8E3033538747A44439E7F8D6E8F3713F682ED0C2, ED2K: C0EC1BAE8BF3DD43B82EA640EAA84B88
Screenshots
screenshotscreenshotscreenshotscreenshotscreenshot
SubtitlesAll Attachments | Signs/Karaoke [BlurayDesuYo] [eng, ASS], [BlurayDesuYo] [eng, ASS]
Additional Info
General
Unique ID                                : 46444186310020754252519806084594865911 (0x22F0D32DAD29E8DBA6F5053FBE0D16F7)
Complete name                            : [NoobSubs] Tokyo Ghoul √A 03 (720p Blu-ray Dual Audio 8bit AC3)[4ADCDFC2].mkv
Format                                   : Matroska
Format version                           : Version 4 / Version 2
File size                                : 496 MiB
Duration                                 : 24 min 5 s
Overall bit rate                         : 2 879 kb/s
Movie name                               : Tokyo Ghoul √A - 03 - Hangman
Track name/Position                      : 3
Track name/Total                         : 12
Encoded date                             : UTC 2018-07-11 17:16:13
Writing application                      : mkvmerge v23.0.0 ('The Bride Said No') 64-bit
Writing library                          : libebml v1.3.6 + libmatroska v1.4.9
Attachments                              : Disney_Simple_0.ttf / Kan2EngGSZS3.ttf / lcchalk.ttf / LHFSpeedstyleIIBOLD.ttf / LondonBetween.ttf / Material_Sans.otf / msgothic_0.ttc / ALEX_.ttf / Angie-Bold.ttf / BinaryITC TT Light.ttf / blue highway rg.otf / brushsp.ttf
ARTIST                                   : Subs: [BlurayDesuYo]

Video
ID                                       : 1
Format                                   : AVC
Format/Info                              : Advanced Video Codec
Format profile                           : High@L4
Format settings, CABAC                   : Yes
Format settings, ReFrames                : 6 frames
Codec ID                                 : V_MPEG4/ISO/AVC
Duration                                 : 24 min 5 s
Bit rate                                 : 1 660 kb/s
Width                                    : 1 280 pixels
Height                                   : 720 pixels
Display aspect ratio                     : 16:9
Frame rate mode                          : Constant
Frame rate                               : 23.976 (24000/1001) FPS
Color space                              : YUV
Chroma subsampling                       : 4:2:0
Bit depth                                : 8 bits
Scan type                                : Progressive
Bits/(Pixel*Frame)                       : 0.075
Stream size                              : 286 MiB (58%)
Default                                  : Yes
Forced                                   : No

Audio #1
ID                                       : 2
Format                                   : AC-3
Format/Info                              : Audio Coding 3
Mode extension                           : CM (complete main)
Format settings, Endianness              : Big
Codec ID                                 : A_AC3
Duration                                 : 24 min 4 s
Bit rate mode                            : Constant
Bit rate                                 : 640 kb/s
Channel(s)                               : 6 channels
Channel positions                        : Front: L C R, Side: L R, LFE
Sampling rate                            : 48.0 kHz
Frame rate                               : 31.250 FPS (1536 spf)
Bit depth                                : 16 bits
Compression mode                         : Lossy
Delay relative to video                  : -1 ms
Stream size                              : 110 MiB (22%)
Title                                    : English 5.1 channel AC3
Language                                 : English
Default                                  : Yes
Forced                                   : No

Audio #2
ID                                       : 3
Format                                   : AAC
Format/Info                              : Advanced Audio Codec
Format profile                           : LC
Codec ID                                 : A_AAC
Duration                                 : 24 min 5 s
Bit rate                                 : 275 kb/s
Channel(s)                               : 2 channels
Channel positions                        : Front: L R
Sampling rate                            : 48.0 kHz
Frame rate                               : 46.875 FPS (1024 spf)
Compression mode                         : Lossy
Delay relative to video                  : 8 ms
Stream size                              : 47.3 MiB (10%)
Title                                    : Japanese 2.0 channel AAC
Language                                 : Japanese
Default                                  : No
Forced                                   : No

Audio #3
ID                                       : 4
Format                                   : AAC
Format/Info                              : Advanced Audio Codec
Format profile                           : LC
Codec ID                                 : A_AAC
Duration                                 : 24 min 5 s
Bit rate                                 : 228 kb/s
Channel(s)                               : 2 channels
Channel positions                        : Front: L R
Sampling rate                            : 48.0 kHz
Frame rate                               : 46.875 FPS (1024 spf)
Compression mode                         : Lossy
Delay relative to video                  : -1 ms
Stream size                              : 39.3 MiB (8%)
Title                                    : Japanese Commentary 2.0 channel AAC
Language                                 : Japanese
Default                                  : No
Forced                                   : No

Text #1
ID                                       : 5
Format                                   : ASS
Codec ID                                 : S_TEXT/ASS
Codec ID/Info                            : Advanced Sub Station Alpha
Bit rate                                 : 0 b/s
Count of elements                        : 0
Compression mode                         : Lossless
Stream size                              : 0.00 Byte (0%)
Title                                    : Signs/Karaoke [BlurayDesuYo]
Language                                 : English
Default                                  : Yes
Forced                                   : No

Text #2
ID                                       : 6
Format                                   : ASS
Codec ID                                 : S_TEXT/ASS
Codec ID/Info                            : Advanced Sub Station Alpha
Duration                                 : 22 min 13 s
Bit rate                                 : 97 b/s
Count of elements                        : 300
Compression mode                         : Lossless
Stream size                              : 15.9 KiB (0%)
Title                                    : [BlurayDesuYo]
Language                                 : English
Default                                  : No
Forced                                   : No

Menu
00:00:00.033                             : en:Intro
00:02:26.000                             : en:OP
00:03:56.000                             : en:Part A
00:13:19.020                             : en:Part B
00:22:31.950                             : en:ED
00:24:02.000                             : en:Preview

Other Files in this Torrent
2. Tokyo Ghoul Root A/[NoobSubs] Tokyo Ghoul √A 03 (720p Blu-ray Dual Audio 8bit AC3)[4ADCDFC2].mkv
beta
Anime DDL+NZB mirror
Current Time: 27/11/2022 14:35



About/FAQs

Discord