2. Tokyo Ghoul Root A/Extras/[NoobSubs] Tokyo Ghoul √A NCOP (720p Blu-ray 8bit AAC).mp4


File Size27.45 MB (28,781,719 bytes)
DownloadClickNUpload | DiskoKosmiko | Go4Up | Jheberg | MultiUp | OpenLoad | Sendspace | SolidFiles | ZippyShare
HashesCRC32: F6C453B9, MD5: C2BC664031BB97B4819ED17DA04015BB, SHA1: 3C89B2C162F4E60A5AD58C975A28E519C7E246B2, SHA256: 208026D7723E0C261308DF84424FB4E87CF1EC2FDA7AA67BC464F41A5A0F0E3A, ED2K: B984AA218A48BAD421468F3AFE8BA5FE
Screenshots
screenshotscreenshot
Additional Info
General
Complete name                            : [NoobSubs] Tokyo Ghoul √A NCOP (720p Blu-ray 8bit AAC).mp4
Format                                   : MPEG-4
Format profile                           : Base Media
Codec ID                                 : isom (isom/avc1)
File size                                : 27.4 MiB
Duration                                 : 1 min 32 s
Overall bit rate mode                    : Variable
Overall bit rate                         : 2 501 kb/s
Movie name                               : [NoobSubs] Tokyo Ghoul √A NCOP (720p Blu-ray 8bit AAC)
Album                                    : Tokyo Ghoul √A
Track name/Position                      : 1
Track name/Total                         : 1
Performer                                : Subs: [BlurayDesuYo]
Encoded date                             : UTC 2016-05-26 04:15:01
Tagged date                              : UTC 2016-05-26 06:03:39
replaygain_track_gain                    : +1.38 dB
replaygain_track_minmax                  : 103,176
replaygain_track_peak                    : 0.530000
replaygain_undo                          : 1,1

Video
ID                                       : 1
Format                                   : AVC
Format/Info                              : Advanced Video Codec
Format profile                           : High@L4
Format settings, CABAC                   : Yes
Format settings, ReFrames                : 6 frames
Codec ID                                 : avc1
Codec ID/Info                            : Advanced Video Coding
Duration                                 : 1 min 32 s
Bit rate                                 : 2 245 kb/s
Maximum bit rate                         : 4 528 kb/s
Width                                    : 1 280 pixels
Height                                   : 720 pixels
Display aspect ratio                     : 16:9
Frame rate mode                          : Constant
Frame rate                               : 23.976 (24000/1001) FPS
Color space                              : YUV
Chroma subsampling                       : 4:2:0
Bit depth                                : 8 bits
Scan type                                : Progressive
Bits/(Pixel*Frame)                       : 0.102
Stream size                              : 24.6 MiB (90%)
Title                                    : 264@GPAC0.6.2-DEV-rev142-g9a9a995-master
Writing library                          : x264 core 148 r2665 a01e339
Encoding settings                        : cabac=1 / ref=6 / deblock=1:1:1 / analyse=0x3:0x133 / me=umh / subme=10 / psy=1 / psy_rd=0.40:0.00 / mixed_ref=1 / me_range=24 / chroma_me=1 / trellis=2 / 8x8dct=1 / cqm=0 / deadzone=21,11 / fast_pskip=1 / chroma_qp_offset=-2 / threads=12 / lookahead_threads=2 / sliced_threads=0 / nr=0 / decimate=1 / interlaced=0 / bluray_compat=0 / constrained_intra=0 / bframes=7 / b_pyramid=2 / b_adapt=2 / b_bias=0 / direct=3 / weightb=1 / open_gop=0 / weightp=2 / keyint=250 / keyint_min=23 / scenecut=40 / intra_refresh=0 / rc_lookahead=60 / rc=crf / mbtree=1 / crf=17.3 / qcomp=0.60 / qpmin=0 / qpmax=69 / qpstep=4 / ip_ratio=1.40 / aq=1:1.40
Encoded date                             : UTC 2016-05-26 04:15:01
Tagged date                              : UTC 2016-05-26 04:15:02

Audio
ID                                       : 2
Format                                   : AAC
Format/Info                              : Advanced Audio Codec
Format profile                           : LC
Codec ID                                 : 40
Duration                                 : 1 min 32 s
Bit rate mode                            : Variable
Bit rate                                 : 252 kb/s
Maximum bit rate                         : 279 kb/s
Channel(s)                               : 2 channels
Channel positions                        : Front: L R
Sampling rate                            : 48.0 kHz
Frame rate                               : 46.875 FPS (1024 spf)
Compression mode                         : Lossy
Stream size                              : 2.77 MiB (10%)
Encoded date                             : UTC 2016-05-26 04:14:59
Tagged date                              : UTC 2016-05-26 04:15:02

Other Files in this Torrent
2. Tokyo Ghoul Root A/Extras/[NoobSubs] Tokyo Ghoul √A NCOP (720p Blu-ray 8bit AAC).mp4
beta
Anime DDL+NZB mirror
Current Time: 07/12/2021 03:51



About/FAQs

Discord