1. Tokyo Ghoul/[NoobSubs] Tokyo Ghoul 07 (720p Blu-ray Dual Audio 8bit AAC)[D772AD4D].mkv


File Size411.6 MB (431,605,650 bytes)
DownloadClickNUpload | DiskoKosmiko | Go4Up | Jheberg | MultiUp | OpenLoad | SolidFiles | ZippyShare
Sendspace: Part1, Part2
HashesCRC32: D772AD4D, MD5: 0384A74B4A51CD851AD368CC16D8126C, SHA1: A383F3E715D3B81BFFB7C4FB2F8EC27F15E48B1F, SHA256: C82CAB30EBD6047114D5173F81FE3D347C9C4906A253647A8BC1006F699B9338, ED2K: 2342E71F59F870FBC18D9CAAABEBA0B2
Screenshots
screenshotscreenshotscreenshotscreenshotscreenshot
SubtitlesAll Attachments | Signs/Karaoke [BlurayDesuYo] [eng, ASS], [BlurayDesuYo] [eng, ASS]
Additional Info
General
Unique ID                                : 98090128650694571463611123660317144512 (0x49CB78BAE3DED35C16252E9A01C635C0)
Complete name                            : [NoobSubs] Tokyo Ghoul 07 (720p Blu-ray Dual Audio 8bit AAC)[D772AD4D].mkv
Format                                   : Matroska
Format version                           : Version 4 / Version 2
File size                                : 412 MiB
Duration                                 : 24 min 6 s
Overall bit rate                         : 2 386 kb/s
Movie name                               : Tokyo Ghoul - 07 - Captivity
Track name/Position                      : 7
Track name/Total                         : 12
Encoded date                             : UTC 2018-07-09 10:16:36
Writing application                      : mkvmerge v23.0.0 ('The Bride Said No') 64-bit
Writing library                          : libebml v1.3.6 + libmatroska v1.4.9
Attachments                              : framd.ttf / GARAM28.TTF / huxtable.ttf / VAG_Rounded_Std_Light_Regular.otf / ALEX_.ttf / Angie-Bold.ttf / calibril.ttf / ChalkDust_Regular.ttf / CLEARGL.TTF
ARTIST                                   : Subs: [BlurayDesuYo]

Video
ID                                       : 1
Format                                   : AVC
Format/Info                              : Advanced Video Codec
Format profile                           : High@L4
Format settings, CABAC                   : Yes
Format settings, ReFrames                : 6 frames
Codec ID                                 : V_MPEG4/ISO/AVC
Duration                                 : 24 min 6 s
Bit rate                                 : 1 814 kb/s
Width                                    : 1 280 pixels
Height                                   : 720 pixels
Display aspect ratio                     : 16:9
Frame rate mode                          : Constant
Frame rate                               : 23.976 (24000/1001) FPS
Color space                              : YUV
Chroma subsampling                       : 4:2:0
Bit depth                                : 8 bits
Scan type                                : Progressive
Bits/(Pixel*Frame)                       : 0.082
Stream size                              : 313 MiB (76%)
Default                                  : Yes
Forced                                   : No

Audio #1
ID                                       : 2
Format                                   : AAC
Format/Info                              : Advanced Audio Codec
Format profile                           : LC
Codec ID                                 : A_AAC
Duration                                 : 24 min 6 s
Bit rate                                 : 271 kb/s
Channel(s)                               : 2 channels
Channel positions                        : Front: L R
Sampling rate                            : 48.0 kHz
Frame rate                               : 46.875 FPS (1024 spf)
Compression mode                         : Lossy
Delay relative to video                  : 8 ms
Stream size                              : 46.7 MiB (11%)
Title                                    : English 2.0 channel AAC
Language                                 : English
Default                                  : Yes
Forced                                   : No

Audio #2
ID                                       : 3
Format                                   : AAC
Format/Info                              : Advanced Audio Codec
Format profile                           : LC
Codec ID                                 : A_AAC
Duration                                 : 24 min 5 s
Bit rate                                 : 288 kb/s
Channel(s)                               : 2 channels
Channel positions                        : Front: L R
Sampling rate                            : 48.0 kHz
Frame rate                               : 46.875 FPS (1024 spf)
Compression mode                         : Lossy
Delay relative to video                  : 8 ms
Stream size                              : 49.2 MiB (12%)
Title                                    : Japanese 2.0 channel AAC
Language                                 : Japanese
Default                                  : No
Forced                                   : No

Text #1
ID                                       : 4
Format                                   : ASS
Codec ID                                 : S_TEXT/ASS
Codec ID/Info                            : Advanced Sub Station Alpha
Bit rate                                 : 0 b/s
Count of elements                        : 0
Compression mode                         : Lossless
Stream size                              : 0.00 Byte (0%)
Title                                    : Signs/Karaoke [BlurayDesuYo]
Language                                 : English
Default                                  : Yes
Forced                                   : No

Text #2
ID                                       : 5
Format                                   : ASS
Codec ID                                 : S_TEXT/ASS
Codec ID/Info                            : Advanced Sub Station Alpha
Duration                                 : 24 min 5 s
Bit rate                                 : 102 b/s
Count of elements                        : 339
Compression mode                         : Lossless
Stream size                              : 18.1 KiB (0%)
Title                                    : [BlurayDesuYo]
Language                                 : English
Default                                  : No
Forced                                   : No

Menu
00:00:00.000                             : en:Intro
00:02:18.990                             : en:OP
00:03:49.000                             : en:Part A
00:10:56.920                             : en:Part B
00:22:05.920                             : en:ED
00:23:35.890                             : en:Preview

Other Files in this Torrent
1. Tokyo Ghoul/[NoobSubs] Tokyo Ghoul 07 (720p Blu-ray Dual Audio 8bit AAC)[D772AD4D].mkv
beta
Anime DDL+NZB mirror
Current Time: 29/01/2022 10:47



About/FAQs

Discord