1. Tokyo Ghoul/[NoobSubs] Tokyo Ghoul 02 (720p Blu-ray Dual Audio 8bit AAC)[E3F00ED1].mkv


File Size348.6 MB (365,585,380 bytes)
DownloadClickNUpload | DiskoKosmiko | Go4Up | Jheberg | MultiUp | OpenLoad | SolidFiles | ZippyShare
Sendspace: Part1, Part2
HashesCRC32: E3F00ED1, MD5: 28FBFEC9B6388C8A04C34C0D293CAD14, SHA1: 1525E8CDA61791165699E6BDA46BDD44B36EA94F, SHA256: 62478DEC0417549F6D23923C6AA1389CA4239DF0443CC556A008C0FED05B9114, ED2K: 2B79B85F80841A6666FC8BC4E3D9D1FD
Screenshots
screenshotscreenshotscreenshotscreenshotscreenshot
SubtitlesAll Attachments | Signs/Karaoke [BlurayDesuYo] [eng, ASS], [BlurayDesuYo] [eng, ASS]
Additional Info
General
Unique ID                                : 293430698903856144085165838373454162270 (0xDCC0B26C1C62C0673871D04A3A11295E)
Complete name                            : [NoobSubs] Tokyo Ghoul 02 (720p Blu-ray Dual Audio 8bit AAC)[E3F00ED1].mkv
Format                                   : Matroska
Format version                           : Version 4 / Version 2
File size                                : 349 MiB
Duration                                 : 24 min 0 s
Overall bit rate                         : 2 030 kb/s
Movie name                               : Tokyo Ghoul - 02 - Incubation
Track name/Position                      : 2
Track name/Total                         : 12
Encoded date                             : UTC 2018-07-09 10:14:48
Writing application                      : mkvmerge v23.0.0 ('The Bride Said No') 64-bit
Writing library                          : libebml v1.3.6 + libmatroska v1.4.9
Attachments                              : Angie-Bold.ttf / CLEARGL.TTF / huxtable.ttf / IwaTxtPro-Bd-Madoka.ttf / JANBRADY.TTF / ALEX_.ttf / Agilita W02 Bold.ttf
ARTIST                                   : Subs: [BlurayDesuYo]

Video
ID                                       : 1
Format                                   : AVC
Format/Info                              : Advanced Video Codec
Format profile                           : High@L4
Format settings, CABAC                   : Yes
Format settings, ReFrames                : 6 frames
Codec ID                                 : V_MPEG4/ISO/AVC
Duration                                 : 24 min 0 s
Bit rate                                 : 1 469 kb/s
Width                                    : 1 280 pixels
Height                                   : 720 pixels
Display aspect ratio                     : 16:9
Frame rate mode                          : Constant
Frame rate                               : 23.976 (24000/1001) FPS
Color space                              : YUV
Chroma subsampling                       : 4:2:0
Bit depth                                : 8 bits
Scan type                                : Progressive
Bits/(Pixel*Frame)                       : 0.066
Stream size                              : 252 MiB (72%)
Default                                  : Yes
Forced                                   : No

Audio #1
ID                                       : 2
Format                                   : AAC
Format/Info                              : Advanced Audio Codec
Format profile                           : LC
Codec ID                                 : A_AAC
Duration                                 : 23 min 59 s
Bit rate                                 : 265 kb/s
Channel(s)                               : 2 channels
Channel positions                        : Front: L R
Sampling rate                            : 48.0 kHz
Frame rate                               : 46.875 FPS (1024 spf)
Compression mode                         : Lossy
Delay relative to video                  : 8 ms
Stream size                              : 46.2 MiB (13%)
Title                                    : English 2.0 channel AAC
Language                                 : English
Default                                  : Yes
Forced                                   : No

Audio #2
ID                                       : 3
Format                                   : AAC
Format/Info                              : Advanced Audio Codec
Format profile                           : LC
Codec ID                                 : A_AAC
Duration                                 : 23 min 59 s
Bit rate                                 : 279 kb/s
Channel(s)                               : 2 channels
Channel positions                        : Front: L R
Sampling rate                            : 48.0 kHz
Frame rate                               : 46.875 FPS (1024 spf)
Compression mode                         : Lossy
Delay relative to video                  : 8 ms
Stream size                              : 47.9 MiB (14%)
Title                                    : Japanese 2.0 channel AAC
Language                                 : Japanese
Default                                  : No
Forced                                   : No

Text #1
ID                                       : 4
Format                                   : ASS
Codec ID                                 : S_TEXT/ASS
Codec ID/Info                            : Advanced Sub Station Alpha
Bit rate                                 : 0 b/s
Count of elements                        : 0
Compression mode                         : Lossless
Stream size                              : 0.00 Byte (0%)
Title                                    : Signs/Karaoke [BlurayDesuYo]
Language                                 : English
Default                                  : Yes
Forced                                   : No

Text #2
ID                                       : 5
Format                                   : ASS
Codec ID                                 : S_TEXT/ASS
Codec ID/Info                            : Advanced Sub Station Alpha
Duration                                 : 23 min 59 s
Bit rate                                 : 109 b/s
Count of elements                        : 351
Compression mode                         : Lossless
Stream size                              : 19.2 KiB (0%)
Title                                    : [BlurayDesuYo]
Language                                 : English
Default                                  : No
Forced                                   : No

Menu
00:00:00.000                             : en:Intro
00:01:33.940                             : en:OP
00:03:03.950                             : en:Part A
00:10:11.960                             : en:Part B
00:22:00.090                             : en:ED
00:23:29.930                             : en:Preview

Other Files in this Torrent
1. Tokyo Ghoul/[NoobSubs] Tokyo Ghoul 02 (720p Blu-ray Dual Audio 8bit AAC)[E3F00ED1].mkv
beta
Anime DDL+NZB mirror
Current Time: 07/12/2021 02:10



About/FAQs

Discord