[Kosaka] One Punch Man Season 2 - 12 - The Wiping of the Disciple's Butt (1080p AV1 10Bit BluRay OPUS) [Dual-Audio] [A0100315].mkv


File Size341.2 MB (357,739,487 bytes)
DownloadClickNUpload | DailyUploads | DownloadGG | GoFile | KrakenFiles | MdiaLoad | MultiUp
  • BdUpload
  • DownAce
  • Fichier
  • FileCloud
  • Filerio
  • FilesCdn
  • IndiShare
  • Kbagi
  • Turbobit
  • UpToBox
  • Uppit
| Uppit
HashesCRC32: A0100315, MD5: 099837393376799478A8676416975915, SHA1: A16AB6CA0AB975788548EF8E2793EA0D32E3E5B6, SHA256: 60EFF9DF4A95C0C3E0F315733A6211C315A827B5F3E57CFE7423A90913600244, ED2K: CE0D9EB800C784DC8C83403A0F8F087D
Screenshots
screenshotscreenshotscreenshotscreenshotscreenshot
SubtitlesAll Attachments | Full Subtitles [GJM] [eng, ASS], Signs/Songs [GJM] [eng, ASS]
Additional Info
General
Unique ID                                : 154863330388362184640850248613677713397 (0x748197AFEE67564BF304C298440747F5)
Complete name                            : [Kosaka] One Punch Man Season 2 - 12 - The Wiping of the Disciple's Butt (1080p AV1 10Bit BluRay OPUS) [Dual-Audio] [A0100315].mkv
Format                                   : Matroska
Format version                           : Version 4
File size                                : 341 MiB
Duration                                 : 23 min 49 s
Overall bit rate                         : 2 001 kb/s
Frame rate                               : 23.976 FPS
Movie name                               : One Punch Man Season 2 - 12 - The Wiping of the Disciple's Butt
Encoded date                             : 2024-01-05 21:27:25 UTC
Writing application                      : Lavf60.16.100
Writing library                          : Lavf60.16.100
ErrorDetectionType                       : Per level 1
Attachments                              : DkCinnabarBrush.TTF / EdoSz.TTF / franchise-Bold.TTF / toxia.TTF / XangdaShiny.TTF / AwesomeSauceDemo.OTF / GandhiSans-Bold.OTF / GandhiSans-BoldItalic.OTF / PeunaBrush.OTF

Video
ID                                       : 1
Format                                   : AV1
Format/Info                              : AOMedia Video 1
Format profile                           : Main@L4.0
Codec ID                                 : V_AV1
Duration                                 : 23 min 49 s
Bit rate                                 : 1 797 kb/s
Width                                    : 1 920 pixels
Height                                   : 1 080 pixels
Display aspect ratio                     : 16:9
Frame rate mode                          : Constant
Frame rate                               : 23.976 (24000/1001) FPS
Color space                              : YUV
Chroma subsampling                       : 4:2:0
Bit depth                                : 10 bits
Bits/(Pixel*Frame)                       : 0.036
Stream size                              : 306 MiB (90%)
Default                                  : Yes
Forced                                   : No
Color range                              : Limited

Audio #1
ID                                       : 2
Format                                   : Opus
Codec ID                                 : A_OPUS
Duration                                 : 23 min 49 s
Bit rate                                 : 96.4 kb/s
Channel(s)                               : 2 channels
Channel layout                           : L R
Sampling rate                            : 48.0 kHz
Frame rate                               : 50.000 FPS (960 SPF)
Bit depth                                : 32 bits
Compression mode                         : Lossy
Stream size                              : 16.4 MiB (5%)
Title                                    : OPUS 2.0
Writing library                          : Lavc60.31.102 libopus
Language                                 : Japanese
Default                                  : Yes
Forced                                   : No

Audio #2
ID                                       : 3
Format                                   : Opus
Codec ID                                 : A_OPUS
Duration                                 : 23 min 49 s
Bit rate                                 : 94.4 kb/s
Channel(s)                               : 2 channels
Channel layout                           : L R
Sampling rate                            : 48.0 kHz
Frame rate                               : 50.000 FPS (960 SPF)
Bit depth                                : 32 bits
Compression mode                         : Lossy
Stream size                              : 16.1 MiB (5%)
Title                                    : OPUS 2.0
Writing library                          : Lavc60.31.102 libopus
Language                                 : English
Default                                  : No
Forced                                   : No

Text #1
ID                                       : 4
Format                                   : ASS
Codec ID                                 : S_TEXT/ASS
Codec ID/Info                            : Advanced Sub Station Alpha
Compression mode                         : Lossless
Title                                    : Full Subtitles [GJM]
Language                                 : English
Default                                  : Yes
Forced                                   : No
Statistics Tags Issue                    : mkvmerge v78.0 ('Running') 64-bit 2024-01-02 14:27:36 / Lavf60.16.100 2024-01-05 21:27:25
FromStats_BitRate                        : 463
FromStats_Duration                       : 00:23:45.300000000
FromStats_FrameCount                     : 837
FromStats_StreamSize                     : 82589

Text #2
ID                                       : 5
Format                                   : ASS
Codec ID                                 : S_TEXT/ASS
Codec ID/Info                            : Advanced Sub Station Alpha
Compression mode                         : Lossless
Title                                    : Signs/Songs [GJM]
Language                                 : English
Default                                  : No
Forced                                   : Yes
Statistics Tags Issue                    : mkvmerge v78.0 ('Running') 64-bit 2024-01-02 14:27:36 / Lavf60.16.100 2024-01-05 21:27:25
FromStats_BitRate                        : 368
FromStats_Duration                       : 00:23:28.420000000
FromStats_FrameCount                     : 499
FromStats_StreamSize                     : 60255

Menu
00:00:00.007                             : Part A
00:08:39.985                             : Part B
00:21:58.491                             : Ending
00:23:28.581                             : Epilogue

Other Files in this Torrent
[Kosaka] One Punch Man Season 2 - 12 - The Wiping of the Disciple's Butt (1080p AV1 10Bit BluRay OPUS) [Dual-Audio] [A0100315].mkv
beta
Anime DDL+NZB mirror
Current Time: 20/05/2024 22:12



About/FAQs

Discord