[Kosaka] One Punch Man Season 2 - 09 - The Ultimate Dilemma (1080p AV1 10Bit BluRay OPUS) [Dual-Audio] [AD4FBF33].mkv


File Size144.4 MB (151,447,593 bytes)
DownloadClickNUpload | DailyUploads | DownloadGG | GoFile | KrakenFiles | MdiaLoad | MultiUp
  • BdUpload
  • DownAce
  • Fichier
  • FileCloud
  • Filerio
  • FilesCdn
  • IndiShare
  • Kbagi
  • Turbobit
  • UpToBox
  • Uppit
| Uppit
HashesCRC32: AD4FBF33, MD5: 97FEA16EE87C54092B6235616B7A3F58, SHA1: 4B5D889A54DA016C84960A176194C265C735CFAE, SHA256: 468EDC1132688245EE970FF7A3CA87005E764742467B74656D6EA541D82AF70E, ED2K: F0002F82869F982242AA9A28B99C1145
Screenshots
screenshotscreenshotscreenshotscreenshotscreenshot
SubtitlesAll Attachments | Full Subtitles [GJM] [eng, ASS], Signs/Songs [GJM] [eng, ASS]
Additional Info
General
Unique ID                                : 91992530208467226246077802267411643710 (0x45351DEA760ED2A7EDEE497316227D3E)
Complete name                            : [Kosaka] One Punch Man Season 2 - 09 - The Ultimate Dilemma (1080p AV1 10Bit BluRay OPUS) [Dual-Audio] [AD4FBF33].mkv
Format                                   : Matroska
Format version                           : Version 4
File size                                : 144 MiB
Duration                                 : 23 min 50 s
Overall bit rate                         : 847 kb/s
Frame rate                               : 23.976 FPS
Movie name                               : One Punch Man Season 2 - 09 - The Ultimate Dilemma
Encoded date                             : 2024-01-05 17:47:40 UTC
Writing application                      : Lavf60.16.100
Writing library                          : Lavf60.16.100
ErrorDetectionType                       : Per level 1
Attachments                              : AauxPromedium.TTF / abscissa-Bold.TTF / arial.ttf / franchise-Bold.TTF / JaneRoe-Bold.TTF / MasterBreaker.TTF / XangdaShiny.TTF / AwesomeSauceDemo.OTF / GandhiSans-Bold.OTF / GandhiSans-BoldItalic.OTF / PeunaBrush.OTF

Video
ID                                       : 1
Format                                   : AV1
Format/Info                              : AOMedia Video 1
Format profile                           : Main@L4.0
Codec ID                                 : V_AV1
Duration                                 : 23 min 50 s
Bit rate                                 : 633 kb/s
Width                                    : 1 920 pixels
Height                                   : 1 080 pixels
Display aspect ratio                     : 16:9
Frame rate mode                          : Constant
Frame rate                               : 23.976 FPS
Color space                              : YUV
Chroma subsampling                       : 4:2:0
Bit depth                                : 10 bits
Bits/(Pixel*Frame)                       : 0.013
Stream size                              : 108 MiB (75%)
Default                                  : Yes
Forced                                   : No
Color range                              : Limited

Audio #1
ID                                       : 2
Format                                   : Opus
Codec ID                                 : A_OPUS
Duration                                 : 23 min 50 s
Bit rate                                 : 97.4 kb/s
Channel(s)                               : 2 channels
Channel layout                           : L R
Sampling rate                            : 48.0 kHz
Frame rate                               : 50.000 FPS (960 SPF)
Bit depth                                : 32 bits
Compression mode                         : Lossy
Stream size                              : 16.6 MiB (11%)
Title                                    : OPUS 2.0
Writing library                          : Lavc60.31.102 libopus
Language                                 : Japanese
Default                                  : Yes
Forced                                   : No

Audio #2
ID                                       : 3
Format                                   : Opus
Codec ID                                 : A_OPUS
Duration                                 : 23 min 50 s
Bit rate                                 : 98.9 kb/s
Channel(s)                               : 2 channels
Channel layout                           : L R
Sampling rate                            : 48.0 kHz
Frame rate                               : 50.000 FPS (960 SPF)
Bit depth                                : 32 bits
Compression mode                         : Lossy
Stream size                              : 16.9 MiB (12%)
Title                                    : OPUS 2.0
Writing library                          : Lavc60.31.102 libopus
Language                                 : English
Default                                  : No
Forced                                   : No

Text #1
ID                                       : 4
Format                                   : ASS
Codec ID                                 : S_TEXT/ASS
Codec ID/Info                            : Advanced Sub Station Alpha
Compression mode                         : Lossless
Title                                    : Full Subtitles [GJM]
Language                                 : English
Default                                  : Yes
Forced                                   : No
Statistics Tags Issue                    : mkvmerge v78.0 ('Running') 64-bit 2024-01-02 13:46:25 / Lavf60.16.100 2024-01-05 17:47:40
FromStats_BitRate                        : 475
FromStats_Duration                       : 00:23:50.070000000
FromStats_FrameCount                     : 910
FromStats_StreamSize                     : 84854

Text #2
ID                                       : 5
Format                                   : ASS
Codec ID                                 : S_TEXT/ASS
Codec ID/Info                            : Advanced Sub Station Alpha
Compression mode                         : Lossless
Title                                    : Signs/Songs [GJM]
Language                                 : English
Default                                  : No
Forced                                   : Yes
Statistics Tags Issue                    : mkvmerge v78.0 ('Running') 64-bit 2024-01-02 13:46:25 / Lavf60.16.100 2024-01-05 17:47:40
FromStats_BitRate                        : 323
FromStats_Duration                       : 00:23:50.070000000
FromStats_FrameCount                     : 461
FromStats_StreamSize                     : 56306

Menu
00:00:00.007                             : Prologue
00:00:29.036                             : Opening
00:01:59.043                             : Part A
00:16:40.048                             : Part B
00:23:45.097                             : Preview

Other Files in this Torrent
[Kosaka] One Punch Man Season 2 - 09 - The Ultimate Dilemma (1080p AV1 10Bit BluRay OPUS) [Dual-Audio] [AD4FBF33].mkv
beta
Anime DDL+NZB mirror
Current Time: 18/05/2024 09:17



About/FAQs

Discord