Extras/OVA/[Kosaka] One Punch Man Season 2 Specials - OVA - 01 - Saitama and Those With Reasonable Abilities (1080p AV1 10Bit BluRay OPUS) [Dual-Audio] [2DEB3813].mkv


File Size89.12 MB (93,452,373 bytes)
DownloadClickNUpload | DailyUploads | DownloadGG | GoFile | KrakenFiles | MdiaLoad | MultiUp
  • BdUpload
  • DownAce
  • Fichier
  • FileCloud
  • Filerio
  • FilesCdn
  • IndiShare
  • Kbagi
  • Turbobit
  • UpToBox
  • Uppit
| Uppit
HashesCRC32: 2DEB3813, MD5: 98421FDFA5C155FA42DC448301DA20E8, SHA1: DD4819918A162A0DD11F022E0D48D1535A719BD2, SHA256: F6B856061B6978853FE00B8497E7262755521FACE9708FDE1642DD9A8C8A79AE, ED2K: 82F63CC8FC3E451671FE905611594AB3
Screenshots
screenshotscreenshotscreenshotscreenshotscreenshot
SubtitlesAll Attachments | Full Subtitles [GJM] [eng, ASS], Signs/Songs [GJM] [eng, ASS]
Additional Info
General
Unique ID                                : 173637945764200356796071107637019822408 (0x82A173B13860A5F318D5709D5ED24948)
Complete name                            : [Kosaka] One Punch Man Season 2 Specials - OVA - 01 - Saitama and Those With Reasonable Abilities (1080p AV1 10Bit BluRay OPUS) [Dual-Audio] [2DEB3813].mkv
Format                                   : Matroska
Format version                           : Version 4
File size                                : 89.1 MiB
Duration                                 : 12 min 0 s
Overall bit rate                         : 1 038 kb/s
Frame rate                               : 23.976 FPS
Movie name                               : One Punch Man Season 2 Specials - OVA - 01 - Saitama and Those With Reasonable Abilities
Encoded date                             : 2024-01-05 22:15:04 UTC
Writing application                      : Lavf60.16.100
Writing library                          : Lavf60.16.100
ErrorDetectionType                       : Per level 1
Attachments                              : albatross.TTF / aver.TTF / WorkSans-Bold.TTF / XangdaShiny.TTF / GandhiSans-Bold.OTF / GandhiSans-BoldItalic.OTF

Video
ID                                       : 1
Format                                   : AV1
Format/Info                              : AOMedia Video 1
Format profile                           : Main@L4.0
Codec ID                                 : V_AV1
Duration                                 : 12 min 0 s
Bit rate                                 : 832 kb/s
Width                                    : 1 920 pixels
Height                                   : 1 080 pixels
Display aspect ratio                     : 16:9
Frame rate mode                          : Constant
Frame rate                               : 23.976 FPS
Color space                              : YUV
Chroma subsampling                       : 4:2:0
Bit depth                                : 10 bits
Bits/(Pixel*Frame)                       : 0.017
Stream size                              : 71.5 MiB (80%)
Default                                  : Yes
Forced                                   : No
Color range                              : Limited

Audio #1
ID                                       : 2
Format                                   : Opus
Codec ID                                 : A_OPUS
Duration                                 : 12 min 0 s
Bit rate                                 : 93.1 kb/s
Channel(s)                               : 2 channels
Channel layout                           : L R
Sampling rate                            : 48.0 kHz
Frame rate                               : 50.000 FPS (960 SPF)
Bit depth                                : 32 bits
Compression mode                         : Lossy
Stream size                              : 7.99 MiB (9%)
Title                                    : OPUS 2.0
Writing library                          : Lavc60.31.102 libopus
Language                                 : Japanese
Default                                  : Yes
Forced                                   : No

Audio #2
ID                                       : 3
Format                                   : Opus
Codec ID                                 : A_OPUS
Duration                                 : 12 min 0 s
Bit rate                                 : 93.4 kb/s
Channel(s)                               : 2 channels
Channel layout                           : L R
Sampling rate                            : 48.0 kHz
Frame rate                               : 50.000 FPS (960 SPF)
Bit depth                                : 32 bits
Compression mode                         : Lossy
Stream size                              : 8.02 MiB (9%)
Title                                    : OPUS 2.0
Writing library                          : Lavc60.31.102 libopus
Language                                 : English
Default                                  : No
Forced                                   : No

Text #1
ID                                       : 4
Format                                   : ASS
Codec ID                                 : S_TEXT/ASS
Codec ID/Info                            : Advanced Sub Station Alpha
Compression mode                         : Lossless
Title                                    : Full Subtitles [GJM]
Language                                 : English
Default                                  : Yes
Forced                                   : No
Statistics Tags Issue                    : mkvmerge v78.0 ('Running') 64-bit 2024-01-02 14:39:41 / Lavf60.16.100 2024-01-05 22:15:04
FromStats_BitRate                        : 200
FromStats_Duration                       : 00:11:50.680000000
FromStats_FrameCount                     : 262
FromStats_StreamSize                     : 17802

Text #2
ID                                       : 5
Format                                   : ASS
Codec ID                                 : S_TEXT/ASS
Codec ID/Info                            : Advanced Sub Station Alpha
Compression mode                         : Lossless
Title                                    : Signs/Songs [GJM]
Language                                 : English
Default                                  : No
Forced                                   : Yes
Statistics Tags Issue                    : mkvmerge v78.0 ('Running') 64-bit 2024-01-02 14:39:41 / Lavf60.16.100 2024-01-05 22:15:04
FromStats_BitRate                        : 39
FromStats_Duration                       : 00:11:50.680000000
FromStats_FrameCount                     : 34
FromStats_StreamSize                     : 3441

Menu
00:00:00.007                             : Episode
00:10:30.053                             : Ending

Other Files in this Torrent
Extras/OVA/[Kosaka] One Punch Man Season 2 Specials - OVA - 01 - Saitama and Those With Reasonable Abilities (1080p AV1 10Bit BluRay OPUS) [Dual-Audio] [2DEB3813].mkv
beta
Anime DDL+NZB mirror
Current Time: 18/05/2024 11:11



About/FAQs

Discord