[Kosaka] One Punch Man Season 2 - 02 - Human Monster (1080p AV1 10Bit BluRay OPUS) [Dual-Audio] [4645F3E8].mkv


File Size193.9 MB (203,300,517 bytes)
DownloadClickNUpload | DailyUploads | DownloadGG | GoFile | KrakenFiles | MdiaLoad | MultiUp
  • BdUpload
  • DownAce
  • Fichier
  • FileCloud
  • Filerio
  • FilesCdn
  • IndiShare
  • Kbagi
  • Turbobit
  • UpToBox
  • Uppit
| Uppit
HashesCRC32: 4645F3E8, MD5: 5BEF553DFC9923E66945E4F44DF3691F, SHA1: ED4B96BEC8A85E98DB8A437778791A1D03834DB8, SHA256: EAD3BACFC5454884BC63F4647458964F45A74C23E48578D67B60421FD04DEB19, ED2K: 6FFB98117DAD79B8B984E73DA0141CA9
Screenshots
screenshotscreenshotscreenshotscreenshotscreenshot
SubtitlesAll Attachments | Full Subtitles [GJM] [eng, ASS], Signs/Songs [GJM] [eng, ASS]
Additional Info
General
Unique ID                                : 255043619163473110863279251407512952678 (0xBFDF9D448BD6CBAB8973F730D7B25F66)
Complete name                            : [Kosaka] One Punch Man Season 2 - 02 - Human Monster (1080p AV1 10Bit BluRay OPUS) [Dual-Audio] [4645F3E8].mkv
Format                                   : Matroska
Format version                           : Version 4
File size                                : 194 MiB
Duration                                 : 23 min 50 s
Overall bit rate                         : 1 137 kb/s
Frame rate                               : 23.976 FPS
Movie name                               : One Punch Man Season 2 - 02 - Human Monster
Encoded date                             : 2024-01-04 06:15:30 UTC
Writing application                      : Lavf60.16.100
Writing library                          : Lavf60.16.100
ErrorDetectionType                       : Per level 1
Attachments                              : albatross.TTF / arial.ttf / aver-Bold.TTF / cityburn.TTF / ComicBook.TTF / CrackedJohnnie.TTF / franchise-Bold.TTF / JaneRoe-Bold.TTF / MasterBreaker.TTF / quicksand.TTF / XangdaShiny.TTF / AwesomeSauceDemo.OTF / GandhiSans-Bold.OTF / GandhiSans-BoldItalic.OTF / malvie.OTF / PeunaBrush.OTF

Video
ID                                       : 1
Format                                   : AV1
Format/Info                              : AOMedia Video 1
Format profile                           : Main@L4.0
Codec ID                                 : V_AV1
Duration                                 : 23 min 50 s
Bit rate                                 : 912 kb/s
Width                                    : 1 920 pixels
Height                                   : 1 080 pixels
Display aspect ratio                     : 16:9
Frame rate mode                          : Constant
Frame rate                               : 23.976 FPS
Color space                              : YUV
Chroma subsampling                       : 4:2:0
Bit depth                                : 10 bits
Bits/(Pixel*Frame)                       : 0.018
Stream size                              : 155 MiB (80%)
Default                                  : Yes
Forced                                   : No
Color range                              : Limited

Audio #1
ID                                       : 2
Format                                   : Opus
Codec ID                                 : A_OPUS
Duration                                 : 23 min 50 s
Bit rate                                 : 96.9 kb/s
Channel(s)                               : 2 channels
Channel layout                           : L R
Sampling rate                            : 48.0 kHz
Frame rate                               : 50.000 FPS (960 SPF)
Bit depth                                : 32 bits
Compression mode                         : Lossy
Stream size                              : 16.5 MiB (9%)
Title                                    : OPUS 2.0
Writing library                          : Lavc60.31.102 libopus
Language                                 : Japanese
Default                                  : Yes
Forced                                   : No

Audio #2
ID                                       : 3
Format                                   : Opus
Codec ID                                 : A_OPUS
Duration                                 : 23 min 50 s
Bit rate                                 : 94.7 kb/s
Channel(s)                               : 2 channels
Channel layout                           : L R
Sampling rate                            : 48.0 kHz
Frame rate                               : 50.000 FPS (960 SPF)
Bit depth                                : 32 bits
Compression mode                         : Lossy
Stream size                              : 16.1 MiB (8%)
Title                                    : OPUS 2.0
Writing library                          : Lavc60.31.102 libopus
Language                                 : English
Default                                  : No
Forced                                   : No

Text #1
ID                                       : 4
Format                                   : ASS
Codec ID                                 : S_TEXT/ASS
Codec ID/Info                            : Advanced Sub Station Alpha
Compression mode                         : Lossless
Title                                    : Full Subtitles [GJM]
Language                                 : English
Default                                  : Yes
Forced                                   : No
Statistics Tags Issue                    : mkvmerge v78.0 ('Running') 64-bit 2024-01-02 13:45:07 / Lavf60.16.100 2024-01-04 06:15:30
FromStats_BitRate                        : 2140
FromStats_Duration                       : 00:23:49.990000000
FromStats_FrameCount                     : 2586
FromStats_StreamSize                     : 382620

Text #2
ID                                       : 5
Format                                   : ASS
Codec ID                                 : S_TEXT/ASS
Codec ID/Info                            : Advanced Sub Station Alpha
Compression mode                         : Lossless
Title                                    : Signs/Songs [GJM]
Language                                 : English
Default                                  : No
Forced                                   : Yes
Statistics Tags Issue                    : mkvmerge v78.0 ('Running') 64-bit 2024-01-02 13:45:07 / Lavf60.16.100 2024-01-04 06:15:30
FromStats_BitRate                        : 1987
FromStats_Duration                       : 00:23:49.990000000
FromStats_FrameCount                     : 2152
FromStats_StreamSize                     : 355251

Menu
00:00:00.007                             : Prologue
00:03:40.018                             : Opening
00:05:09.983                             : Part A
00:16:58.983                             : Part B
00:20:22.979                             : Ending
00:21:53.027                             : Epilogue
00:23:45.014                             : Preview

Other Files in this Torrent
[Kosaka] One Punch Man Season 2 - 02 - Human Monster (1080p AV1 10Bit BluRay OPUS) [Dual-Audio] [4645F3E8].mkv
beta
Anime DDL+NZB mirror
Current Time: 18/05/2024 09:22



About/FAQs

Discord