[Kosaka] One Punch Man Season 2 - 11 - The Varieties of Pride (1080p AV1 10Bit BluRay OPUS) [Dual-Audio] [572F5D65].mkv


File Size275.0 MB (288,322,011 bytes)
DownloadClickNUpload | DailyUploads | DownloadGG | GoFile | KrakenFiles | MdiaLoad | MultiUp
  • BdUpload
  • DownAce
  • Fichier
  • FileCloud
  • Filerio
  • FilesCdn
  • IndiShare
  • Kbagi
  • Turbobit
  • UpToBox
  • Uppit
| Uppit
HashesCRC32: 572F5D65, MD5: B473BA0F05B2695206291FE366A89CB7, SHA1: A843C558C33294639604DCFCBD0A463FA77B0897, SHA256: BB8CF4B44B7A2590D91F09F50983A0B8F58999D2E67D56241C14FAC75039B4E4, ED2K: 5FB1A9D36AED2FE7C66E96A7E08D10DD
Screenshots
screenshotscreenshotscreenshotscreenshotscreenshot
SubtitlesAll Attachments | Full Subtitles [GJM] [eng, ASS], Signs/Songs [GJM] [eng, ASS]
Additional Info
General
Unique ID                                : 237648548563003396396892653366590078264 (0xB2C972124D4B181FFBAB2CC950587D38)
Complete name                            : [Kosaka] One Punch Man Season 2 - 11 - The Varieties of Pride (1080p AV1 10Bit BluRay OPUS) [Dual-Audio] [572F5D65].mkv
Format                                   : Matroska
Format version                           : Version 4
File size                                : 275 MiB
Duration                                 : 23 min 49 s
Overall bit rate                         : 1 613 kb/s
Frame rate                               : 23.976 FPS
Movie name                               : One Punch Man Season 2 - 11 - The Varieties of Pride
Encoded date                             : 2024-01-05 20:01:53 UTC
Writing application                      : Lavf60.16.100
Writing library                          : Lavf60.16.100
ErrorDetectionType                       : Per level 1
Attachments                              : albatross.TTF / arial.ttf / EdoSz.TTF / franchise-Bold.TTF / JaneRoe-Bold.TTF / WorkSans-Bold.TTF / XangdaShiny.TTF / AwesomeSauceDemo.OTF / GandhiSans-Bold.OTF / GandhiSans-BoldItalic.OTF / PeunaBrush.OTF

Video
ID                                       : 1
Format                                   : AV1
Format/Info                              : AOMedia Video 1
Format profile                           : Main@L4.0
Codec ID                                 : V_AV1
Duration                                 : 23 min 49 s
Bit rate                                 : 1 402 kb/s
Width                                    : 1 920 pixels
Height                                   : 1 080 pixels
Display aspect ratio                     : 16:9
Frame rate mode                          : Constant
Frame rate                               : 23.976 (24000/1001) FPS
Color space                              : YUV
Chroma subsampling                       : 4:2:0
Bit depth                                : 10 bits
Bits/(Pixel*Frame)                       : 0.028
Stream size                              : 239 MiB (87%)
Default                                  : Yes
Forced                                   : No
Color range                              : Limited

Audio #1
ID                                       : 2
Format                                   : Opus
Codec ID                                 : A_OPUS
Duration                                 : 23 min 49 s
Bit rate                                 : 96.8 kb/s
Channel(s)                               : 2 channels
Channel layout                           : L R
Sampling rate                            : 48.0 kHz
Frame rate                               : 50.000 FPS (960 SPF)
Bit depth                                : 32 bits
Compression mode                         : Lossy
Stream size                              : 16.5 MiB (6%)
Title                                    : OPUS 2.0
Writing library                          : Lavc60.31.102 libopus
Language                                 : Japanese
Default                                  : Yes
Forced                                   : No

Audio #2
ID                                       : 3
Format                                   : Opus
Codec ID                                 : A_OPUS
Duration                                 : 23 min 49 s
Bit rate                                 : 94.5 kb/s
Channel(s)                               : 2 channels
Channel layout                           : L R
Sampling rate                            : 48.0 kHz
Frame rate                               : 50.000 FPS (960 SPF)
Bit depth                                : 32 bits
Compression mode                         : Lossy
Stream size                              : 16.1 MiB (6%)
Title                                    : OPUS 2.0
Writing library                          : Lavc60.31.102 libopus
Language                                 : English
Default                                  : No
Forced                                   : No

Text #1
ID                                       : 4
Format                                   : ASS
Codec ID                                 : S_TEXT/ASS
Codec ID/Info                            : Advanced Sub Station Alpha
Compression mode                         : Lossless
Title                                    : Full Subtitles [GJM]
Language                                 : English
Default                                  : Yes
Forced                                   : No
Statistics Tags Issue                    : mkvmerge v78.0 ('Running') 64-bit 2024-01-02 13:46:44 / Lavf60.16.100 2024-01-05 20:01:53
FromStats_BitRate                        : 619
FromStats_Duration                       : 00:23:49.950000000
FromStats_FrameCount                     : 883
FromStats_StreamSize                     : 110185

Text #2
ID                                       : 5
Format                                   : ASS
Codec ID                                 : S_TEXT/ASS
Codec ID/Info                            : Advanced Sub Station Alpha
Compression mode                         : Lossless
Title                                    : Signs/Songs [GJM]
Language                                 : English
Default                                  : No
Forced                                   : Yes
Statistics Tags Issue                    : mkvmerge v78.0 ('Running') 64-bit 2024-01-02 13:46:44 / Lavf60.16.100 2024-01-05 20:01:53
FromStats_BitRate                        : 571
FromStats_Duration                       : 00:23:49.950000000
FromStats_FrameCount                     : 564
FromStats_StreamSize                     : 90120

Menu
00:00:00.007                             : Prologue
00:02:39.041                             : Opening
00:04:09.006                             : Part A
00:13:20.015                             : Part B
00:22:15.007                             : Ending
00:23:44.972                             : Preview

Other Files in this Torrent
[Kosaka] One Punch Man Season 2 - 11 - The Varieties of Pride (1080p AV1 10Bit BluRay OPUS) [Dual-Audio] [572F5D65].mkv
beta
Anime DDL+NZB mirror
Current Time: 20/05/2024 22:02



About/FAQs

Discord