Extras/OVA/[Kosaka] One Punch Man Season 2 Specials - OVA - 03 - Genos and Memory Loss (1080p AV1 10Bit BluRay OPUS) [Dual-Audio] [38801B91].mkv


File Size84.15 MB (88,233,462 bytes)
DownloadClickNUpload | DailyUploads | DownloadGG | GoFile | KrakenFiles | MdiaLoad | MultiUp
  • BdUpload
  • DownAce
  • Fichier
  • FileCloud
  • Filerio
  • FilesCdn
  • IndiShare
  • Kbagi
  • Turbobit
  • UpToBox
  • Uppit
| Uppit
HashesCRC32: 38801B91, MD5: 063CF1E36599B9E8A1071D2367015D77, SHA1: C5320996294561180AA4D8B7D676791E0754EC96, SHA256: 10BD70B981F0DA6C6A6C2245E9EEC6A491FED3063E4F1480394972CF4630BA22, ED2K: 0DAE9755C5592F8B533FF18EC438E0BD
Screenshots
screenshotscreenshotscreenshotscreenshotscreenshot
SubtitlesAll Attachments | Full Subtitles [GJM] [eng, ASS], Signs/Songs [GJM] [eng, ASS]
Additional Info
General
Unique ID                                : 18538263656383994857458593162889811415 (0xDF256F72FED3E50B92DBB25307C55D7)
Complete name                            : [Kosaka] One Punch Man Season 2 Specials - OVA - 03 - Genos and Memory Loss (1080p AV1 10Bit BluRay OPUS) [Dual-Audio] [38801B91].mkv
Format                                   : Matroska
Format version                           : Version 4
File size                                : 84.1 MiB
Duration                                 : 12 min 0 s
Overall bit rate                         : 980 kb/s
Frame rate                               : 23.976 FPS
Movie name                               : One Punch Man Season 2 Specials - OVA - 03 - Genos and Memory Loss
Encoded date                             : 2024-01-05 23:23:27 UTC
Writing application                      : Lavf60.16.100
Writing library                          : Lavf60.16.100
ErrorDetectionType                       : Per level 1
Attachments                              : albatross.TTF / arial.TTF / BrushStrokes.TTF / ComicBook.TTF / DeathrattleBb.TTF / HlBrush3bk.TTF / SerangkaianPattern.TTF / toxia.TTF / volkswagen-bold.TTF / XangdaShiny.TTF / DkLongreach.OTF / GandhiSans-Bold.OTF / GandhiSans-BoldItalic.OTF / MarkerScribbles.OTF

Video
ID                                       : 1
Format                                   : AV1
Format/Info                              : AOMedia Video 1
Format profile                           : Main@L4.0
Codec ID                                 : V_AV1
Duration                                 : 12 min 0 s
Bit rate                                 : 743 kb/s
Width                                    : 1 920 pixels
Height                                   : 1 080 pixels
Display aspect ratio                     : 16:9
Frame rate mode                          : Constant
Frame rate                               : 23.976 FPS
Color space                              : YUV
Chroma subsampling                       : 4:2:0
Bit depth                                : 10 bits
Bits/(Pixel*Frame)                       : 0.015
Stream size                              : 63.7 MiB (76%)
Default                                  : Yes
Forced                                   : No
Color range                              : Limited

Audio #1
ID                                       : 2
Format                                   : Opus
Codec ID                                 : A_OPUS
Duration                                 : 12 min 0 s
Bit rate                                 : 94.9 kb/s
Channel(s)                               : 2 channels
Channel layout                           : L R
Sampling rate                            : 48.0 kHz
Frame rate                               : 50.000 FPS (960 SPF)
Bit depth                                : 32 bits
Compression mode                         : Lossy
Stream size                              : 8.15 MiB (10%)
Title                                    : OPUS 2.0
Writing library                          : Lavc60.31.102 libopus
Language                                 : Japanese
Default                                  : Yes
Forced                                   : No

Audio #2
ID                                       : 3
Format                                   : Opus
Codec ID                                 : A_OPUS
Duration                                 : 12 min 0 s
Bit rate                                 : 93.0 kb/s
Channel(s)                               : 2 channels
Channel layout                           : L R
Sampling rate                            : 48.0 kHz
Frame rate                               : 50.000 FPS (960 SPF)
Bit depth                                : 32 bits
Compression mode                         : Lossy
Stream size                              : 7.99 MiB (9%)
Title                                    : OPUS 2.0
Writing library                          : Lavc60.31.102 libopus
Language                                 : English
Default                                  : No
Forced                                   : No

Text #1
ID                                       : 4
Format                                   : ASS
Codec ID                                 : S_TEXT/ASS
Codec ID/Info                            : Advanced Sub Station Alpha
Compression mode                         : Lossless
Title                                    : Full Subtitles [GJM]
Language                                 : English
Default                                  : Yes
Forced                                   : No
Statistics Tags Issue                    : mkvmerge v78.0 ('Running') 64-bit 2024-01-02 14:39:49 / Lavf60.16.100 2024-01-05 23:23:27
FromStats_BitRate                        : 5322
FromStats_Duration                       : 00:11:50.680000000
FromStats_FrameCount                     : 633
FromStats_StreamSize                     : 472481

Text #2
ID                                       : 5
Format                                   : ASS
Codec ID                                 : S_TEXT/ASS
Codec ID/Info                            : Advanced Sub Station Alpha
Compression mode                         : Lossless
Title                                    : Signs/Songs [GJM]
Language                                 : English
Default                                  : No
Forced                                   : Yes
Statistics Tags Issue                    : mkvmerge v78.0 ('Running') 64-bit 2024-01-02 14:39:49 / Lavf60.16.100 2024-01-05 23:23:27
FromStats_BitRate                        : 5179
FromStats_Duration                       : 00:11:50.680000000
FromStats_FrameCount                     : 410
FromStats_StreamSize                     : 459756

Menu
00:00:00.007                             : Episode
00:10:30.095                             : Ending

Other Files in this Torrent
Extras/OVA/[Kosaka] One Punch Man Season 2 Specials - OVA - 03 - Genos and Memory Loss (1080p AV1 10Bit BluRay OPUS) [Dual-Audio] [38801B91].mkv
beta
Anime DDL+NZB mirror
Current Time: 18/05/2024 10:02



About/FAQs

Discord