[Kosaka] One Punch Man Season 2 - 10 - The Encircling Net of Justice (1080p AV1 10Bit BluRay OPUS) [Dual-Audio] [8DD682DC].mkv


File Size202.8 MB (212,687,934 bytes)
DownloadClickNUpload | DailyUploads | DownloadGG | GoFile | KrakenFiles | MdiaLoad | MultiUp
  • BdUpload
  • DownAce
  • Fichier
  • FileCloud
  • Filerio
  • FilesCdn
  • IndiShare
  • Kbagi
  • Turbobit
  • UpToBox
  • Uppit
| Uppit
HashesCRC32: 8DD682DC, MD5: 4BFC37C3EB5404D705512B167953DECA, SHA1: B0DC49CAA32A7F96F60CE9A62E86CBB32A6B5A1C, SHA256: 79ABFEACA66F73EED8E4D9982B47C454A9A344AB0B841D4A33BA4103D78597FE, ED2K: 3F521BBE8C5EC7AFDEA77672F6878658
Screenshots
screenshotscreenshotscreenshotscreenshotscreenshot
SubtitlesAll Attachments | Full Subtitles [GJM] [eng, ASS], Signs/Songs [GJM] [eng, ASS]
Additional Info
General
Unique ID                                : 55292207792073887847416149501614494568 (0x2998E45172C8F7E9E3689B33EA6C1368)
Complete name                            : [Kosaka] One Punch Man Season 2 - 10 - The Encircling Net of Justice (1080p AV1 10Bit BluRay OPUS) [Dual-Audio] [8DD682DC].mkv
Format                                   : Matroska
Format version                           : Version 4
File size                                : 203 MiB
Duration                                 : 23 min 50 s
Overall bit rate                         : 1 190 kb/s
Frame rate                               : 23.976 FPS
Movie name                               : One Punch Man Season 2 - 10 - The Encircling Net of Justice
Encoded date                             : 2024-01-05 18:47:25 UTC
Writing application                      : Lavf60.16.100
Writing library                          : Lavf60.16.100
ErrorDetectionType                       : Per level 1
Attachments                              : albatross.TTF / arial.ttf / franchise-Bold.TTF / JaneRoe-Bold.TTF / MasterBreaker.TTF / splatch.TTF / vakansy.TTF / WORKSANS-BLACK.TTF.TTF / WorkSans-Bold.TTF / WorkSansBlack-Black.TTF / WorkSansMedium-Medium.TTF / XangdaShiny.TTF / AwesomeSauceDemo.OTF / chomsky.OTF / GandhiSans-Bold.OTF / GandhiSans-BoldItalic.OTF / IwataMinchoProEnB.OTF / PeunaBrush.OTF

Video
ID                                       : 1
Format                                   : AV1
Format/Info                              : AOMedia Video 1
Format profile                           : Main@L4.0
Codec ID                                 : V_AV1
Duration                                 : 23 min 50 s
Bit rate                                 : 944 kb/s
Width                                    : 1 920 pixels
Height                                   : 1 080 pixels
Display aspect ratio                     : 16:9
Frame rate mode                          : Constant
Frame rate                               : 23.976 FPS
Color space                              : YUV
Chroma subsampling                       : 4:2:0
Bit depth                                : 10 bits
Bits/(Pixel*Frame)                       : 0.019
Stream size                              : 161 MiB (79%)
Default                                  : Yes
Forced                                   : No
Color range                              : Limited

Audio #1
ID                                       : 2
Format                                   : Opus
Codec ID                                 : A_OPUS
Duration                                 : 23 min 50 s
Bit rate                                 : 97.5 kb/s
Channel(s)                               : 2 channels
Channel layout                           : L R
Sampling rate                            : 48.0 kHz
Frame rate                               : 50.000 FPS (960 SPF)
Bit depth                                : 32 bits
Compression mode                         : Lossy
Stream size                              : 16.6 MiB (8%)
Title                                    : OPUS 2.0
Writing library                          : Lavc60.31.102 libopus
Language                                 : Japanese
Default                                  : Yes
Forced                                   : No

Audio #2
ID                                       : 3
Format                                   : Opus
Codec ID                                 : A_OPUS
Duration                                 : 23 min 50 s
Bit rate                                 : 95.0 kb/s
Channel(s)                               : 2 channels
Channel layout                           : L R
Sampling rate                            : 48.0 kHz
Frame rate                               : 50.000 FPS (960 SPF)
Bit depth                                : 32 bits
Compression mode                         : Lossy
Stream size                              : 16.2 MiB (8%)
Title                                    : OPUS 2.0
Writing library                          : Lavc60.31.102 libopus
Language                                 : English
Default                                  : No
Forced                                   : No

Text #1
ID                                       : 4
Format                                   : ASS
Codec ID                                 : S_TEXT/ASS
Codec ID/Info                            : Advanced Sub Station Alpha
Compression mode                         : Lossless
Title                                    : Full Subtitles [GJM]
Language                                 : English
Default                                  : Yes
Forced                                   : No
Statistics Tags Issue                    : mkvmerge v78.0 ('Running') 64-bit 2024-01-02 13:46:35 / Lavf60.16.100 2024-01-05 18:47:25
FromStats_BitRate                        : 1102
FromStats_Duration                       : 00:23:49.990000000
FromStats_FrameCount                     : 1682
FromStats_StreamSize                     : 196951

Text #2
ID                                       : 5
Format                                   : ASS
Codec ID                                 : S_TEXT/ASS
Codec ID/Info                            : Advanced Sub Station Alpha
Compression mode                         : Lossless
Title                                    : Signs/Songs [GJM]
Language                                 : English
Default                                  : No
Forced                                   : Yes
Statistics Tags Issue                    : mkvmerge v78.0 ('Running') 64-bit 2024-01-02 13:46:35 / Lavf60.16.100 2024-01-05 18:47:25
FromStats_BitRate                        : 962
FromStats_Duration                       : 00:23:49.990000000
FromStats_FrameCount                     : 1255
FromStats_StreamSize                     : 170101

Menu
00:00:00.007                             : Prologue
00:01:36.020                             : Opening
00:03:05.984                             : Part A
00:11:40.999                             : Part B
00:22:15.049                             : Ending
00:23:45.014                             : Preview

Other Files in this Torrent
[Kosaka] One Punch Man Season 2 - 10 - The Encircling Net of Justice (1080p AV1 10Bit BluRay OPUS) [Dual-Audio] [8DD682DC].mkv
beta
Anime DDL+NZB mirror
Current Time: 18/05/2024 10:03



About/FAQs

Discord