Extras/OVA/[Kosaka] One Punch Man Season 2 Specials - OVA - 02 - Old Dudes and Fishing (1080p AV1 10Bit BluRay OPUS) [Dual-Audio] [AA2A11EC].mkv


File Size133.2 MB (139,683,425 bytes)
DownloadClickNUpload | DailyUploads | DownloadGG | GoFile | KrakenFiles | MdiaLoad | MultiUp
  • BdUpload
  • DownAce
  • Fichier
  • FileCloud
  • Filerio
  • FilesCdn
  • IndiShare
  • Kbagi
  • Turbobit
  • UpToBox
  • Uppit
| Uppit
HashesCRC32: AA2A11EC, MD5: E526D19C493E998611A1E9EBC7EE1927, SHA1: 647B566E52F982AE80579CB44133AE4D07DB6F23, SHA256: D2249785F8A95FDAEC441A087747ED5A13774540221A1218AB656A5C91267B50, ED2K: F1212A340F5031BB0B42E9953E5A8995
Screenshots
screenshotscreenshotscreenshotscreenshotscreenshot
SubtitlesAll Attachments | Full Subtitles [GJM] [eng, ASS], Signs/Songs [GJM] [eng, ASS]
Additional Info
General
Unique ID                                : 24428537901622611213868357108560633617 (0x1260C3E85B570B7B7F4A373F16051F11)
Complete name                            : [Kosaka] One Punch Man Season 2 Specials - OVA - 02 - Old Dudes and Fishing (1080p AV1 10Bit BluRay OPUS) [Dual-Audio] [AA2A11EC].mkv
Format                                   : Matroska
Format version                           : Version 4
File size                                : 133 MiB
Duration                                 : 12 min 0 s
Overall bit rate                         : 1 552 kb/s
Frame rate                               : 23.976 FPS
Movie name                               : One Punch Man Season 2 Specials - OVA - 02 - Old Dudes and Fishing
Encoded date                             : 2024-01-05 22:55:48 UTC
Writing application                      : Lavf60.16.100
Writing library                          : Lavf60.16.100
ErrorDetectionType                       : Per level 1
Attachments                              : albatross.TTF / XangdaShiny.TTF / GandhiSans-Bold.OTF / GandhiSans-BoldItalic.OTF

Video
ID                                       : 1
Format                                   : AV1
Format/Info                              : AOMedia Video 1
Format profile                           : Main@L4.0
Codec ID                                 : V_AV1
Duration                                 : 12 min 0 s
Bit rate                                 : 1 341 kb/s
Width                                    : 1 920 pixels
Height                                   : 1 080 pixels
Display aspect ratio                     : 16:9
Frame rate mode                          : Constant
Frame rate                               : 23.976 FPS
Color space                              : YUV
Chroma subsampling                       : 4:2:0
Bit depth                                : 10 bits
Bits/(Pixel*Frame)                       : 0.027
Stream size                              : 115 MiB (86%)
Default                                  : Yes
Forced                                   : No
Color range                              : Limited

Audio #1
ID                                       : 2
Format                                   : Opus
Codec ID                                 : A_OPUS
Duration                                 : 12 min 0 s
Bit rate                                 : 99.8 kb/s
Channel(s)                               : 2 channels
Channel layout                           : L R
Sampling rate                            : 48.0 kHz
Frame rate                               : 50.000 FPS (960 SPF)
Bit depth                                : 32 bits
Compression mode                         : Lossy
Stream size                              : 8.57 MiB (6%)
Title                                    : OPUS 2.0
Writing library                          : Lavc60.31.102 libopus
Language                                 : Japanese
Default                                  : Yes
Forced                                   : No

Audio #2
ID                                       : 3
Format                                   : Opus
Codec ID                                 : A_OPUS
Duration                                 : 12 min 0 s
Bit rate                                 : 96.0 kb/s
Channel(s)                               : 2 channels
Channel layout                           : L R
Sampling rate                            : 48.0 kHz
Frame rate                               : 50.000 FPS (960 SPF)
Bit depth                                : 32 bits
Compression mode                         : Lossy
Stream size                              : 8.24 MiB (6%)
Title                                    : OPUS 2.0
Writing library                          : Lavc60.31.102 libopus
Language                                 : English
Default                                  : No
Forced                                   : No

Text #1
ID                                       : 4
Format                                   : ASS
Codec ID                                 : S_TEXT/ASS
Codec ID/Info                            : Advanced Sub Station Alpha
Compression mode                         : Lossless
Title                                    : Full Subtitles [GJM]
Language                                 : English
Default                                  : Yes
Forced                                   : No
Statistics Tags Issue                    : mkvmerge v78.0 ('Running') 64-bit 2024-01-02 14:39:44 / Lavf60.16.100 2024-01-05 22:55:48
FromStats_BitRate                        : 140
FromStats_Duration                       : 00:11:50.680000000
FromStats_FrameCount                     : 194
FromStats_StreamSize                     : 12478

Text #2
ID                                       : 5
Format                                   : ASS
Codec ID                                 : S_TEXT/ASS
Codec ID/Info                            : Advanced Sub Station Alpha
Compression mode                         : Lossless
Title                                    : Signs/Songs [GJM]
Language                                 : English
Default                                  : No
Forced                                   : Yes
Statistics Tags Issue                    : mkvmerge v78.0 ('Running') 64-bit 2024-01-02 14:39:44 / Lavf60.16.100 2024-01-05 22:55:48
FromStats_BitRate                        : 31
FromStats_Duration                       : 00:11:50.680000000
FromStats_FrameCount                     : 28
FromStats_StreamSize                     : 2715

Menu
00:00:00.007                             : Episode
00:10:30.053                             : Ending

Other Files in this Torrent
Extras/OVA/[Kosaka] One Punch Man Season 2 Specials - OVA - 02 - Old Dudes and Fishing (1080p AV1 10Bit BluRay OPUS) [Dual-Audio] [AA2A11EC].mkv
beta
Anime DDL+NZB mirror
Current Time: 18/05/2024 09:28



About/FAQs

Discord