Extras/NC/[Kosaka] One Punch Man Season 2 - NCED 01 (1080p AV1 10Bit BluRay OPUS) [ABD3E92B].mkv


File Size17.45 MB (18,301,394 bytes)
DownloadClickNUpload | DailyUploads | DownloadGG | GoFile | KrakenFiles | MdiaLoad | MultiUp
  • BdUpload
  • DownAce
  • Fichier
  • FileCloud
  • Filerio
  • FilesCdn
  • IndiShare
  • Kbagi
  • Turbobit
  • UpToBox
  • Uppit
| Uppit
HashesCRC32: ABD3E92B, MD5: 7D37906E7A8555EA79DB6044C8782AF0, SHA1: A17110D54C0BFA0226A292F55DAE4808ACDC029E, SHA256: 17172D01E11FA36C24E85E0F774047732DE5EBEF110D0066B5A591E65A2891CD, ED2K: 7F1AD926E62C0A019747D1BB51DF8B4A
Screenshots
screenshotscreenshot
SubtitlesAll Attachments | GJM [eng, ASS]
Additional Info
General
Unique ID                                : 139733842301300538978366103953021909527 (0x691FC2553EB9F33C2A2C51A45304BA17)
Complete name                            : [Kosaka] One Punch Man Season 2 - NCED 01 (1080p AV1 10Bit BluRay OPUS) [ABD3E92B].mkv
Format                                   : Matroska
Format version                           : Version 4
File size                                : 17.5 MiB
Duration                                 : 1 min 30 s
Overall bit rate                         : 1 626 kb/s
Frame rate                               : 23.976 FPS
Encoded date                             : 2024-01-05 21:33:25 UTC
Writing application                      : Lavf60.16.100
Writing library                          : Lavf60.16.100
ErrorDetectionType                       : Per level 1
Attachments                              : ALBATROSS.TTF

Video
ID                                       : 1
Format                                   : AV1
Format/Info                              : AOMedia Video 1
Format profile                           : Main@L4.0
Codec ID                                 : V_AV1
Duration                                 : 1 min 30 s
Bit rate                                 : 1 497 kb/s
Width                                    : 1 920 pixels
Height                                   : 1 080 pixels
Display aspect ratio                     : 16:9
Frame rate mode                          : Constant
Frame rate                               : 23.976 (23976/1000) FPS
Color space                              : YUV
Chroma subsampling                       : 4:2:0
Bit depth                                : 10 bits
Bits/(Pixel*Frame)                       : 0.030
Stream size                              : 16.1 MiB (92%)
Default                                  : Yes
Forced                                   : No
Color range                              : Limited

Audio
ID                                       : 2
Format                                   : Opus
Codec ID                                 : A_OPUS
Duration                                 : 1 min 30 s
Bit rate                                 : 105 kb/s
Channel(s)                               : 2 channels
Channel layout                           : L R
Sampling rate                            : 48.0 kHz
Frame rate                               : 49.996 FPS (960 SPF)
Bit depth                                : 32 bits
Compression mode                         : Lossy
Stream size                              : 1.13 MiB (6%)
Title                                    : OPUS 2.0
Writing library                          : Lavc60.31.102 libopus
Language                                 : Japanese
Default                                  : Yes
Forced                                   : No

Text
ID                                       : 3
Format                                   : ASS
Codec ID                                 : S_TEXT/ASS
Codec ID/Info                            : Advanced Sub Station Alpha
Compression mode                         : Lossless
Title                                    : GJM
Language                                 : English
Default                                  : Yes
Forced                                   : No
Statistics Tags Issue                    : mkvmerge v80.0 ('Roundabout') 64-bit 2024-01-02 13:47:37 / Lavf60.16.100 2024-01-05 21:33:25
FromStats_BitRate                        : 287
FromStats_Duration                       : 00:01:20.600000000
FromStats_FrameCount                     : 26
FromStats_StreamSize                     : 2510

Other Files in this Torrent
Extras/NC/[Kosaka] One Punch Man Season 2 - NCED 01 (1080p AV1 10Bit BluRay OPUS) [ABD3E92B].mkv
beta
Anime DDL+NZB mirror
Current Time: 23/06/2024 00:40



About/FAQs

Discord