[Kosaka] One Punch Man Season 2 - 08 - The Resistance of the Strong (1080p AV1 10Bit BluRay OPUS) [Dual-Audio] [E8831859].mkv


File Size225.8 MB (236,817,913 bytes)
DownloadClickNUpload | DailyUploads | DownloadGG | GoFile | KrakenFiles | MdiaLoad | MultiUp
  • BdUpload
  • DownAce
  • Fichier
  • FileCloud
  • Filerio
  • FilesCdn
  • IndiShare
  • Kbagi
  • Turbobit
  • UpToBox
  • Uppit
| Uppit
HashesCRC32: E8831859, MD5: 51F264650BA206517472D76820DE2614, SHA1: 64C77DCE7EE5BFDFD2E0D5B77F3B0EE23BCD95F6, SHA256: 7AF645416F6EBCC1007FB28220C3F1C53B77678B5597C507F1CEE9EDB5CA61DC, ED2K: 0F9BD98AAEC7488A8A48C491E9F0F50F
Screenshots
screenshotscreenshotscreenshotscreenshotscreenshot
SubtitlesAll Attachments | Full Subtitles [GJM] [eng, ASS], Signs/Songs [GJM] [eng, ASS]
Additional Info
General
Unique ID                                : 311723309973718765462280679133846764708 (0xEA83B9C7BFEE02785AAADC165564FCA4)
Complete name                            : [Kosaka] One Punch Man Season 2 - 08 - The Resistance of the Strong (1080p AV1 10Bit BluRay OPUS) [Dual-Audio] [E8831859].mkv
Format                                   : Matroska
Format version                           : Version 4
File size                                : 226 MiB
Duration                                 : 23 min 50 s
Overall bit rate                         : 1 325 kb/s
Frame rate                               : 23.976 FPS
Movie name                               : One Punch Man Season 2 - 08 - The Resistance of the Strong
Encoded date                             : 2024-01-05 16:52:38 UTC
Writing application                      : Lavf60.16.100
Writing library                          : Lavf60.16.100
ErrorDetectionType                       : Per level 1
Attachments                              : albatross.TTF / arial.ttf / aver-Bold.TTF / franchise-Bold.TTF / JaneRoe-Bold.TTF / WORKSANS-EXTRABOLD.TTF.TTF / WorkSansExtrabold-ExtraBold.TTF / XangdaShiny.TTF / AwesomeSauceDemo.OTF / GandhiSans-Bold.OTF / GandhiSans-BoldItalic.OTF / PeunaBrush.OTF

Video
ID                                       : 1
Format                                   : AV1
Format/Info                              : AOMedia Video 1
Format profile                           : Main@L4.0
Codec ID                                 : V_AV1
Duration                                 : 23 min 50 s
Bit rate                                 : 1 112 kb/s
Width                                    : 1 920 pixels
Height                                   : 1 080 pixels
Display aspect ratio                     : 16:9
Frame rate mode                          : Constant
Frame rate                               : 23.976 FPS
Color space                              : YUV
Chroma subsampling                       : 4:2:0
Bit depth                                : 10 bits
Bits/(Pixel*Frame)                       : 0.022
Stream size                              : 190 MiB (84%)
Default                                  : Yes
Forced                                   : No
Color range                              : Limited

Audio #1
ID                                       : 2
Format                                   : Opus
Codec ID                                 : A_OPUS
Duration                                 : 23 min 50 s
Bit rate                                 : 94.3 kb/s
Channel(s)                               : 2 channels
Channel layout                           : L R
Sampling rate                            : 48.0 kHz
Frame rate                               : 50.000 FPS (960 SPF)
Bit depth                                : 32 bits
Compression mode                         : Lossy
Stream size                              : 16.1 MiB (7%)
Title                                    : OPUS 2.0
Writing library                          : Lavc60.31.102 libopus
Language                                 : Japanese
Default                                  : Yes
Forced                                   : No

Audio #2
ID                                       : 3
Format                                   : Opus
Codec ID                                 : A_OPUS
Duration                                 : 23 min 50 s
Bit rate                                 : 93.0 kb/s
Channel(s)                               : 2 channels
Channel layout                           : L R
Sampling rate                            : 48.0 kHz
Frame rate                               : 50.000 FPS (960 SPF)
Bit depth                                : 32 bits
Compression mode                         : Lossy
Stream size                              : 15.9 MiB (7%)
Title                                    : OPUS 2.0
Writing library                          : Lavc60.31.102 libopus
Language                                 : English
Default                                  : No
Forced                                   : No

Text #1
ID                                       : 4
Format                                   : ASS
Codec ID                                 : S_TEXT/ASS
Codec ID/Info                            : Advanced Sub Station Alpha
Compression mode                         : Lossless
Title                                    : Full Subtitles [GJM]
Language                                 : English
Default                                  : Yes
Forced                                   : No
Statistics Tags Issue                    : mkvmerge v78.0 ('Running') 64-bit 2024-01-02 13:46:15 / Lavf60.16.100 2024-01-05 16:52:38
FromStats_BitRate                        : 1875
FromStats_Duration                       : 00:23:50.030000000
FromStats_FrameCount                     : 2485
FromStats_StreamSize                     : 335269

Text #2
ID                                       : 5
Format                                   : ASS
Codec ID                                 : S_TEXT/ASS
Codec ID/Info                            : Advanced Sub Station Alpha
Compression mode                         : Lossless
Title                                    : Signs/Songs [GJM]
Language                                 : English
Default                                  : No
Forced                                   : Yes
Statistics Tags Issue                    : mkvmerge v78.0 ('Running') 64-bit 2024-01-02 13:46:15 / Lavf60.16.100 2024-01-05 16:52:38
FromStats_BitRate                        : 1745
FromStats_Duration                       : 00:23:50.030000000
FromStats_FrameCount                     : 2101
FromStats_StreamSize                     : 312081

Menu
00:00:00.007                             : Prologue
00:01:24.008                             : Opening
00:02:54.056                             : Part A
00:10:19.084                             : Part B
00:22:15.091                             : Ending
00:23:45.056                             : Preview

Other Files in this Torrent
[Kosaka] One Punch Man Season 2 - 08 - The Resistance of the Strong (1080p AV1 10Bit BluRay OPUS) [Dual-Audio] [E8831859].mkv
beta
Anime DDL+NZB mirror
Current Time: 18/05/2024 09:49



About/FAQs

Discord